Ir a contenido



Foto

El Ejecutor (Bullet to the Head) BDRip 720p Audio LATiNO 5.1



  • Please log in to reply
No hay respuestas en este tema

#1 cadagoto

cadagoto

    Super - Warian@

  • Warianos
  • 4.706 mensajes
  • Sexo:

Escrito 26 de mayo de 2013 - 15:58


El Ejecutor (Bullet to the Head) BDRip 720p Español LATiNO 5.1/Ingles DTS Sub Esp [2012][Acción]

fb1b85000403972e43113ab3b97a2.jpg

Ficha Técnica
Bullet to the Head
El Ejecutor
El Ejecutor: tiro a la cabeza
Año 2012
Duración 91 min.
País Estados Unidos
Director Walter Hill
Guión Alessandro Camon (Novelas gráficas: Alexis Nolent)
Música Steve Mazzaro
Fotografía Lloyd Ahern II
Reparto
Sylvester Stallone, Jason Momoa, Christian Slater, Sarah Shahi, Adewale Akinnuoye-Agbaje,
Sung Kang, Marcus Lyle Brown, Jon Seda, Brian Van Holt
Productora Warner Bros. Pictures / Dark Castle Entertainment / IM Global / After Dark Films
Género Acción. Thriller | Crimen. Cómic

Sinopsis
Tras su último trabajo, Jimmy Bobo (Sylvester Stallone), un implacable asesino a sueldo de Nueva Orleáns, sufre un ataque inesperado por parte de Keegan (Jason Momoa), una imparable máquina de matar que ejecuta sin contemplaciones a su compañero (Jon Seda). Dispuesto a vengarse, Jimmy se ve obligado a colaborar con Taylor Kwon (Sung Kan), un detective de la policía poco partidario de los métodos expeditivos. Sin embargo, pronto descubrirá que Jimmy es el arma más eficaz para acabar con una peligrosa organización que ha corrompido a la policía y a las altas esferas de una ciudad devastada por el huracán Katrina. (FILMAFFINITY)

Datos Técnicos

General
Format                                   : Matroska
Format version                           : Version 2
File size                                : 5.18 GiB
Duration                                 : 1h 31mn
Overall bit rate                         : 8 104 Kbps
Movie name                               : CadagotoHD.Com  ¡Visítanos!
Encoded date                             : UTC 2013-05-26 06:19:23
Writing application                      : mkvmerge v3.4.0 ('Rapunzel') built on May 15 2010 09:38:20
Writing library                          : libebml v0.8.0 + libmatroska v0.9.0

Video
ID                                       : 1
Format                                   : AVC
Format/Info                              : Advanced Video Codec
Format profile                           : High@L4.1
Format settings, CABAC                   : Yes
Format settings, ReFrames                : 5 frames
Codec ID                                 : V_MPEG4/ISO/AVC
Duration                                 : 1h 31mn
Bit rate                                 : 5 316 Kbps
Width                                    : 1 280 pixels
Height                                   : 688 pixels
Display aspect ratio                     : 1.85:1
Frame rate mode                          : Constant
Frame rate                               : 23.976 fps
Color space                              : YUV
Chroma subsampling                       : 4:2:0
Bit depth                                : 8 bits
Scan type                                : Progressive
Bits/(Pixel*Frame)                       : 0.252
Stream size                              : 3.30 GiB (64%)
Title                                    : CadagotoHD.Com  ¡Visítanos!
Writing library                          : x264 core 133 r2334 a3ac64b
Encoding settings                        : cabac=1 / ref=5 / deblock=1:0:0 / analyse=0x3:0x133 / me=umh / subme=8 / psy=1 / psy_rd=1.00:0.00 / mixed_ref=1 / me_range=16 / chroma_me=1 / trellis=1 / 8x8dct=1 / cqm=0 / deadzone=21,11 / fast_pskip=0 / chroma_qp_offset=-2 / threads=24 / lookahead_threads=4 / sliced_threads=0 / nr=0 / decimate=1 / interlaced=0 / bluray_compat=0 / constrained_intra=0 / bframes=3 / b_pyramid=2 / b_adapt=1 / b_bias=0 / direct=1 / weightb=1 / open_gop=0 / weightp=2 / keyint=250 / keyint_min=23 / scenecut=40 / intra_refresh=0 / rc=2pass / mbtree=0 / bitrate=5316 / ratetol=1.0 / qcomp=0.60 / qpmin=0 / qpmax=69 / qpstep=4 / cplxblur=20.0 / qblur=0.5 / ip_ratio=1.40 / pb_ratio=1.30 / aq=1:1.00
Language                                 : English
Default                                  : Yes
Forced                                   : No

Audio #1
ID                                       : 2
Format                                   : AC-3
Format/Info                              : Audio Coding 3
Mode extension                           : CM (complete main)
Format settings, Endianness              : Big
Codec ID                                 : A_AC3
Duration                                 : 1h 31mn
Bit rate mode                            : Constant
Bit rate                                 : 640 Kbps
Channel(s)                               : 6 channels
Channel positions                        : Front: L C R, Side: L R, LFE
Sampling rate                            : 48.0 KHz
Bit depth                                : 16 bits
Compression mode                         : Lossy
Delay relative to video                  : 20ms
Stream size                              : 419 MiB (8%)
Title                                    : CadagotoHD.Com  -  Audio Español Latino AC3 5.1 640 Kbps
Language                                 : Spanish
Default                                  : Yes
Forced                                   : Yes

Audio #2
ID                                       : 3
Format                                   : AC-3
Format/Info                              : Audio Coding 3
Mode extension                           : CM (complete main)
Format settings, Endianness              : Big
Codec ID                                 : A_AC3
Duration                                 : 1h 31mn
Bit rate mode                            : Constant
Bit rate                                 : 640 Kbps
Channel(s)                               : 6 channels
Channel positions                        : Front: L C R, Side: L R, LFE
Sampling rate                            : 48.0 KHz
Bit depth                                : 16 bits
Compression mode                         : Lossy
Stream size                              : 419 MiB (8%)
Title                                    : CadagotoHD.Com  -  Audio Ingles AC3 5.1 640 Kbps
Language                                 : English
Default                                  : No
Forced                                   : No

Audio #3
ID                                       : 4
Format                                   : DTS
Format/Info                              : Digital Theater Systems
Mode                                     : 16
Format settings, Endianness              : Big
Codec ID                                 : A_DTS
Duration                                 : 1h 31mn
Bit rate mode                            : Constant
Bit rate                                 : 1 509 Kbps
Channel(s)                               : 6 channels
Channel positions                        : Front: L C R, Side: L R, LFE
Sampling rate                            : 48.0 KHz
Bit depth                                : 24 bits
Compression mode                         : Lossy
Stream size                              : 988 MiB (19%)
Title                                    : CadagotoHD.Com  -  Audio Ingles DTS 1509 Kbps
Language                                 : English
Default                                  : No
Forced                                   : No

Text #1
ID                                       : 5
Format                                   : UTF-8
Codec ID                                 : S_TEXT/UTF8
Codec ID/Info                            : UTF-8 Plain Text
Language                                 : Spanish
Default                                  : Yes
Forced                                   : Yes

Text #2
ID                                       : 6
Format                                   : UTF-8
Codec ID                                 : S_TEXT/UTF8
Codec ID/Info                            : UTF-8 Plain Text
Title                                    : CadagotoHD.Com - Subtitulos Español Latino
Language                                 : Spanish
Default                                  : No
Forced                                   : No

Menu
00:00:00.000                             : en:00:00:00.000
00:06:32.434                             : en:00:06:32.434
00:07:43.380                             : en:00:07:43.380
00:11:30.440                             : en:00:11:30.440
00:16:25.109                             : en:00:16:25.109
00:21:54.355                             : en:00:21:54.355
00:27:53.547                             : en:00:27:53.547
00:30:30.078                             : en:00:30:30.078
00:34:59.931                             : en:00:34:59.931
00:40:39.312                             : en:00:40:39.312
00:47:19.295                             : en:00:47:19.295
00:56:18.375                             : en:00:56:18.375
01:00:55.110                             : en:01:00:55.110
01:03:45.447                             : en:01:03:45.447
01:07:01.184                             : en:01:07:01.184
01:09:18.571                             : en:01:09:18.571
01:13:50.968                             : en:01:13:50.968
01:17:32.356                             : en:01:17:32.356
01:23:24.333                             : en:01:23:24.333
01:26:23.011                             : en:01:26:23.011

3acd0d9aa0dce0fd2eeb8164e13e8.png

55fc54094d2533ba47ed92c2b39c8.png

8898fdc3fd4ef8ce7834f12ffe532.png

b26d941d1f195d96ff8f6f82f2d88.png

4fb05f247d37b7db8bec1eb9545c2.png

2c11d46f3f2109d8c63338e942e48.png

a0a9292f7e9f043148f3ce971a20d.png






Descargar Enlaces AQUI
http://s2l.biz/vpr8fnmqxib6j





Utiliza los Archivos .REV si tienes problema con 1,2,3 archivos en su descarga , Esté off o corruptos
353af4414c4a58c68848412c4e1e0.gif
Si necesitas 2 archivos , Bajas 2 REV y los reconstruirán Cualquiera que fuesen los que te falten !


  • 0


Venta De Dolares Paypal
El Valor De Cada Dolar Es el Valor Del Dia
Solo Reales Interesados enviar Correo a Cadagoto@gmail.com




Compra Tu Premiun Desde AQUI Y Descarga A Maxima Velocidad

[center]http://ul.to/ref/2144263
1cfa199e35c7b638be97676d120a8.jpg

.




0 usuario(s) viendo este foro

0 miembros, 0 invitados, 0 usuarios anónimos

Ocultar Publicidad