Ir a contenido



Foto

Hansel & Gretel (2013) [BDRip 1080p][Español Latino/Ingles]

Hansel & Gretel 2013 bdrip 1080p español latino ingles


  • Please log in to reply
No hay respuestas en este tema

#1 Ch4m4k0

Ch4m4k0

    Warian@ - Elite

  • Warianos
  • 745 mensajes
  • Sexo:

Escrito 13 de mayo de 2013 - 18:17

 

hansel_front-785x1024.jpg

 
sinopsis.png
 
Han pasado quince años desde que Hansel (Jeremy Renner) y Gretel (Gemma Arterton) vivieron la aventura que los hizo famosos. Tras probar el sabor de la sangre siendo unos niños, ambos se han convertido en unos auténticos justicieros, dispuestos a todo para vengarse. Pero ahora, sin que ellos lo sepan, también se han convertido en la presa, y tienen que enfrentarse a algo mucho más siniestro que las brujas: su pasado.
 
ficha-1.png
 
TÍTULO ORIGINAL: Hansel and Gretel: Witch Hunters
OTROS TÍTULOS: Hansel & Gretel: Cazadores de brujas / Hansel y Gretel: Cazadores de Brujas
AÑO: 2013
DURACIÓN: 88 min.
PAÍS: USA
DIRECTOR: Tommy Wirkola
GUIÓN: Dante Harper, Tommy Wirkola
MÚSICA: Atli Örvarsson
FOTOGRAFÍA: Michael Bonvillain
REPARTO: Jeremy Renner, Gemma Arterton, Peter Stormare, Famke Janssen, Zoe Bell, Derek Mears, Ingrid Bolsø Berdal (AKA Ingrid Bolso Berdal)
PRODUCTORA: Coproducción EEUU-Alemania; MGM / S13bz3hnt3 B4b3lsb3rg / G4ry S4nch3z Pr0duct10ns
GÉNERO: Aventuras. Terror. Acción. Comedia | Brujería. Cuentos. 3-D
FECHA DE ESTRENO RUSIA: 17 de enero de 2013
FECHA DE ESTRENO ARGENTINA: 22 de enero de 2013
FECHA DE ESTRENO USA: 25 de enero de 2013
FECHA DE ESTRENO ESPAÑA: 1 de marzo de 2013
 
Informacion.png
 
General
Unique ID                                : 219568047215483707426575288387201955364 (0xA52F4487BE87EA659959DC8735DC7624)
Complete name                            : Hansel.and.Gretel.Witch.Hunters.2013.1080p.BluRay.Latino.By.Chamako.mkv
Format                                   : Matroska
Format version                           : Version 2
File size                                : 6.56 GiB
Duration                                 : 1h 37mn
Overall bit rate                         : 9 586 Kbps
Movie name                               : www.Chamako.Net - Hansel and Gretel Witch Hunters 2013 BDRip 1080P Latino
Encoded date                             : UTC 2013-05-13 20:46:30
Writing application                      : mkvmerge v3.4.0 ('Rapunzel') built on May 15 2010 09:38:20
Writing library                          : libebml v0.8.0 + libmatroska v0.9.0
 
Video
ID                                       : 1
Format                                   : AVC
Format/Info                              : Advanced Video Codec
Format profile                           : High@L4.1
Format settings, CABAC                   : Yes
Format settings, ReFrames                : 5 frames
Codec ID                                 : V_MPEG4/ISO/AVC
Duration                                 : 1h 37mn
Bit rate                                 : 8 305 Kbps
Width                                    : 1 920 pixels
Height                                   : 800 pixels
Display aspect ratio                     : 2.40:1
Frame rate mode                          : Constant
Frame rate                               : 23.976 fps
Color space                              : YUV
Chroma subsampling                       : 4:2:0
Bit depth                                : 8 bits
Scan type                                : Progressive
Bits/(Pixel*Frame)                       : 0.226
Stream size                              : 5.55 GiB (85%)
Title                                    : www.Chamako.Net - Hansel and Gretel Witch Hunters 2013
Writing library                          : x264 core 130 r2273 b3065e6
Encoding settings                        : cabac=1 / ref=5 / deblock=1:-3:-3 / analyse=0x3:0x133 / me=umh / subme=10 / psy=1 / psy_rd=1.10:0.10 / mixed_ref=1 / me_range=16 / chroma_me=1 / trellis=2 / 8x8dct=1 / cqm=0 / deadzone=21,11 / fast_pskip=0 / chroma_qp_offset=-3 / threads=6 / lookahead_threads=1 / sliced_threads=0 / nr=0 / decimate=0 / interlaced=0 / bluray_compat=0 / constrained_intra=0 / bframes=7 / b_pyramid=2 / b_adapt=2 / b_bias=0 / direct=3 / weightb=1 / open_gop=0 / weightp=2 / keyint=250 / keyint_min=23 / scenecut=40 / intra_refresh=0 / rc_lookahead=150 / rc=2pass / mbtree=1 / bitrate=8305 / ratetol=1.0 / qcomp=0.60 / qpmin=0 / qpmax=69 / qpstep=4 / cplxblur=20.0 / qblur=0.5 / ip_ratio=1.40 / aq=1:0.90
Language                                 : English
Default                                  : No
Forced                                   : Yes
 
Audio #1
ID                                       : 2
Format                                   : AC-3
Format/Info                              : Audio Coding 3
Mode extension                           : CM (complete main)
Format settings, Endianness              : Big
Codec ID                                 : A_AC3
Duration                                 : 1h 37mn
Bit rate mode                            : Constant
Bit rate                                 : 640 Kbps
Channel(s)                               : 6 channels
Channel positions                        : Front: L C R, Side: L R, LFE
Sampling rate                            : 48.0 KHz
Bit depth                                : 16 bits
Compression mode                         : Lossy
Stream size                              : 448 MiB (7%)
Title                                    : www.Chamako.Net - Latino 5.1
Language                                 : Spanish
Default                                  : Yes
Forced                                   : No
 
Audio #2
ID                                       : 3
Format                                   : AC-3
Format/Info                              : Audio Coding 3
Mode extension                           : CM (complete main)
Format settings, Endianness              : Big
Codec ID                                 : A_AC3
Duration                                 : 1h 37mn
Bit rate mode                            : Constant
Bit rate                                 : 640 Kbps
Channel(s)                               : 6 channels
Channel positions                        : Front: L C R, Side: L R, LFE
Sampling rate                            : 48.0 KHz
Bit depth                                : 16 bits
Compression mode                         : Lossy
Stream size                              : 448 MiB (7%)
Title                                    : www.Chamako.Net - English 5.1
Language                                 : English
Default                                  : No
Forced                                   : No
 
capturas.png
 
c2013-05-13-14h08m07s219.png
c2013-05-13-14h09m21s219.png
c2013-05-13-14h13m07s147.png
c2013-05-13-14h14m58s231.png
 
Descargar-1.png
 
2 ARCHIVO DE RECUPERACIÓN
Añadir el link al Jdownloader o MiPony, y empieza a descargar del host que mas te agrade
2 SERVIDORES DISPONIBLES
 
 
CONTRASEÑA: chamako (todo minusculas)
 
Si Algun link cae solo enviame un MP con el link del post y lo resubiré
 

 


  • 0

Enviar MP cualquier Duda.

Respondere cuando pueda y este disponible.






Otros temas etiquetados con una o más de estas palabras clave: Hansel & Gretel, 2013, bdrip 1080p, español latino, ingles

0 usuario(s) viendo este foro

0 miembros, 0 invitados, 0 usuarios anónimos

Ocultar Publicidad