Ir a contenido



Foto

The Grandmaster [BDRip 720p][Chino AC3 5.1 & DTS][Sub Esp]



  • Please log in to reply
No hay respuestas en este tema

#1 cadagoto

cadagoto

    Super - Warian@

  • Warianos
  • 4.706 mensajes
  • Sexo:

Escrito 01 de mayo de 2013 - 01:21


The Grandmaster [BDRip 720p][Chino AC3 5.1 & DTS][Sub Esp][2013][Acción]

f9e93f66445c8a209afecc2fa0756.jpg

Ficha Técnica
TÍTULO ORIGINAL: Yut doi jung si (Yi dai zong shi) (Yidai zongshi) (The Grandmasters) (The Grandmaster)
AÑO: 2013
DURACIÓN: 130 min.
PAÍS: Hong Kong
DIRECTOR: Wong Kar-Wai
GUIÓN: Wong Kar-Wai, Xu Haofeng, Zou Jinzhi (Historia: Wong Kar-Wai)
REPARTO: Tony Leung Chiu Wai, Zhang Ziyi, Zhao Benshan, Chang Chen, Brigitte Lin, Zhang Jin, Song Hye-kyo, Wang Qingxiang, Cung Le, Lo Hoi-pang, Liu Xun, Leung Siu Lung, Julian Cheung Chi-lam
PRODUCTORA: Coproducción China-Hong Kong; Block 2 Pictures / Jet Tone Production / Sil-Metropole Organisation / Annapurna Pictures
GÉNERO: Drama. Acción | Biográfico. Artes marciales. Años 30. Años 40. Años 50

Sinopsis
Biografía de los años jóvenes de Bruce Lee (Zhao Benshan) y su relación con su maestro Yip Man (Tony Leung) durante la década de los años 50.

Datos Técnicos

General
Format                                   : Matroska
Format version                           : Version 2
File size                                : 6.52 GiB
Duration                                 : 2h 10mn
Overall bit rate                         : 7 175 Kbps
Movie name                               : CadagotoHD.Com  ¡Visítanos!
Encoded date                             : UTC 2013-05-01 01:36:36
Writing application                      : mkvmerge v3.4.0 ('Rapunzel') built on May 15 2010 09:38:20
Writing library                          : libebml v0.8.0 + libmatroska v0.9.0

Video
ID                                       : 1
Format                                   : AVC
Format/Info                              : Advanced Video Codec
Format profile                           : High@L4.1
Format settings, CABAC                   : Yes
Format settings, ReFrames                : 12 frames
Codec ID                                 : V_MPEG4/ISO/AVC
Duration                                 : 2h 10mn
Bit rate                                 : 4 370 Kbps
Width                                    : 1 280 pixels
Height                                   : 536 pixels
Display aspect ratio                     : 2.40:1
Frame rate mode                          : Constant
Frame rate                               : 24.000 fps
Color space                              : YUV
Chroma subsampling                       : 4:2:0
Bit depth                                : 8 bits
Scan type                                : Progressive
Bits/(Pixel*Frame)                       : 0.265
Stream size                              : 3.83 GiB (59%)
Title                                    : CadagotoHD.Com  ¡Visítanos!
Writing library                          : x264 core 130 r2273 b3065e6
Encoding settings                        : cabac=1 / ref=12 / deblock=1:-3:-3 / analyse=0x3:0x113 / me=umh / subme=10 / psy=1 / psy_rd=1.00:0.05 / mixed_ref=1 / me_range=32 / chroma_me=1 / trellis=2 / 8x8dct=1 / cqm=0 / deadzone=21,11 / fast_pskip=0 / chroma_qp_offset=-2 / threads=8 / lookahead_threads=1 / sliced_threads=0 / nr=0 / decimate=1 / interlaced=0 / bluray_compat=0 / constrained_intra=0 / bframes=5 / b_pyramid=2 / b_adapt=2 / b_bias=0 / direct=3 / weightb=1 / open_gop=0 / weightp=2 / keyint=250 / keyint_min=24 / scenecut=40 / intra_refresh=0 / rc=2pass / mbtree=0 / bitrate=4370 / ratetol=1.0 / qcomp=0.70 / qpmin=0 / qpmax=69 / qpstep=4 / cplxblur=20.0 / qblur=0.5 / ip_ratio=1.40 / pb_ratio=1.30 / aq=2:0.90
Language                                 : Chinese
Default                                  : No
Forced                                   : No

Audio #1
ID                                       : 2
Format                                   : AC-3
Format/Info                              : Audio Coding 3
Mode extension                           : CM (complete main)
Format settings, Endianness              : Big
Codec ID                                 : A_AC3
Duration                                 : 2h 10mn
Bit rate mode                            : Constant
Bit rate                                 : 640 Kbps
Channel(s)                               : 6 channels
Channel positions                        : Front: L C R, Side: L R, LFE
Sampling rate                            : 48.0 KHz
Bit depth                                : 16 bits
Compression mode                         : Lossy
Stream size                              : 596 MiB (9%)
Title                                    : CadagotoHD.Com  -  Audio Chino Mandarin AC3  5.1 640kbps
Language                                 : Chinese
Default                                  : No
Forced                                   : No

Audio #2
ID                                       : 3
Format                                   : AC-3
Format/Info                              : Audio Coding 3
Mode extension                           : CM (complete main)
Format settings, Endianness              : Big
Codec ID                                 : A_AC3
Duration                                 : 2h 10mn
Bit rate mode                            : Constant
Bit rate                                 : 640 Kbps
Channel(s)                               : 6 channels
Channel positions                        : Front: L C R, Side: L R, LFE
Sampling rate                            : 48.0 KHz
Bit depth                                : 16 bits
Compression mode                         : Lossy
Stream size                              : 596 MiB (9%)
Title                                    : CadagotoHD.Com  -  Audio Cantones AC3 5.1 640kbps
Language                                 : Chinese
Default                                  : No
Forced                                   : No

Audio #3
ID                                       : 4
Format                                   : DTS
Format/Info                              : Digital Theater Systems
Mode                                     : 16
Format settings, Endianness              : Big
Codec ID                                 : A_DTS
Duration                                 : 2h 10mn
Bit rate mode                            : Constant
Bit rate                                 : 768 Kbps
Channel(s)                               : 6 channels
Channel positions                        : Front: L C R, Side: L R, LFE
Sampling rate                            : 48.0 KHz
Bit depth                                : 24 bits
Compression mode                         : Lossy
Stream size                              : 715 MiB (11%)
Title                                    : CadagotoHD.Com  -  Audio Chino Mandarin DTS 5.1 768kbps
Language                                 : Chinese
Default                                  : No
Forced                                   : No

Audio #4
ID                                       : 5
Format                                   : DTS
Format/Info                              : Digital Theater Systems
Mode                                     : 16
Format settings, Endianness              : Big
Codec ID                                 : A_DTS
Duration                                 : 2h 10mn
Bit rate mode                            : Constant
Bit rate                                 : 768 Kbps
Channel(s)                               : 6 channels
Channel positions                        : Front: L C R, Side: L R, LFE
Sampling rate                            : 48.0 KHz
Bit depth                                : 24 bits
Compression mode                         : Lossy
Stream size                              : 715 MiB (11%)
Title                                    : CadagotoHD.Com  -  Audio Cantones DTS 5.1 768kbps
Language                                 : Chinese
Default                                  : No
Forced                                   : No

Text
ID                                       : 6
Format                                   : UTF-8
Codec ID                                 : S_TEXT/UTF8
Codec ID/Info                            : UTF-8 Plain Text
Title                                    : CadagotoHD.Com - Subtitulos Español Latino
Language                                 : Spanish
Default                                  : Yes
Forced                                   : Yes
5aa1779c1dac27fb532f0867fe6bf.png

7f13ea5116bbfda25a80849cad879.png

4fa966c5a49960394d552f15dfd4f.png

c66b0c3532c2cd1ceb4b89479eece.png

04c0866b78d8167c3c14ff5e5f17f.png





Descargar Enlaces AQUI
http://s2l.biz/qaft3mm1k4zl



Utiliza los Archivos .REV si tienes problema con 1,2,3 archivos en su descarga , Esté off o corruptos
353af4414c4a58c68848412c4e1e0.gif
Si necesitas 2 archivos , Bajas 2 REV y los reconstruirán Cualquiera que fuesen los que te falten !


  • 0


Venta De Dolares Paypal
El Valor De Cada Dolar Es el Valor Del Dia
Solo Reales Interesados enviar Correo a Cadagoto@gmail.com




Compra Tu Premiun Desde AQUI Y Descarga A Maxima Velocidad

[center]http://ul.to/ref/2144263
1cfa199e35c7b638be97676d120a8.jpg

.




0 usuario(s) viendo este foro

0 miembros, 0 invitados, 0 usuarios anónimos

Ocultar Publicidad