Ir a contenido



Foto

Volver Al Futuro 1 Full HD

futuro volver Dr einstein Gratis links


  • Please log in to reply
No hay respuestas en este tema

#1 cogollo2106

cogollo2106

    Warian@ - NSI

  • Leecher
  • 21 mensajes
  • Sexo:

Escrito 05 de agosto de 2012 - 03:37

Imagen enviada

Imagen enviada
Citar:
Título original: Back to the future
Año: 1985
Duración: 116 min.
País: EE.UU.
Director: Robert Zemeckis
Guión: Bob Gale y Robert Zemeckis
Música: Alan Silvestri
Fotografía: Dean Cundey
Reparto: Michael J. Fox, Christopher Lloyd, Lea Thompson, Crispin Glover, Claudia Wells, Thomas F. Wilson, Billy Zane y Sachi Parker
Productora: Universal Pictures
Premios: 1985: Oscar: Mejores efectos de sonido. 4 nominaciones
Género: Ciencia ficción. Comedia. Fantástico. Aventuras.
Imagen enviada



El adolescente Marty McFly es amigo de Doc, un científico al que todos toman por loco. Cuando Doc crea una máquina para viajar en el tiempo, un error fortuito hace que Marty llegue a 1955, año en el que sus futuros padres aún no se habían conocido. Después de impedir su primer encuentro, deberá conseguir que se conozcan y se casen; de lo contrario, su existencia no sería posible.
Imagen enviada

Imagen enviada

Imagen enviada



General

Format : Matroska
Format version : Version 2
File size : 7.96 GiB
Duration : 1h 56mn
Overall bit rate : 9 820 Kbps
Encoded date : UTC 2011-04-19 04:38:07
Writing application : mkvmerge v3.2.0 ('Beginnings') built on Feb 12 2010 16:46:17
Writing library : libebml v0.7.9 + libmatroska v0.8.1

Video
ID : 1
Format : AVC
Format/Info : Advanced Video Codec
Format profile : High@L4.1
Format settings, CABAC : Yes
Format settings, ReFrames : 4 frames
Codec ID : V_MPEG4/ISO/AVC
Duration : 1h 56mn
Bit rate : 7 110 Kbps
Width : 1 920 pixels
Height : 1 040 pixels
Display aspect ratio : 16:9
Frame rate : 23.976 fps
Color space : YUV
Chroma subsampling : 4:2:0
Bit depth : 8 bits
Scan type : Progressive
Bits/(Pixel*Frame) : 0.149
Stream size : 5.65 GiB (71%)
Title : Vídeo
Writing library : x264 core 104 r1675 2484aa0
Encoding settings : cabac=1 / ref=4 / deblock=1:0:0 / analyse=0x3:0x133 / me=umh / subme=10 / psy=1 / psy_rd=1.00:0.00 / mixed_ref=1 / me_range=24 / chroma_me=1 / trellis=2 / 8x8dct=1 / cqm=0 / deadzone=21,11 / fast_pskip=1 / chroma_qp_offset=-2 / threads=6 / sliced_threads=0 / nr=0 / decimate=1 / interlaced=0 / constrained_intra=0 / bframes=8 / b_pyramid=2 / b_adapt=2 / b_bias=0 / direct=3 / weightb=1 / open_gop=0 / weightp=2 / keyint=250 / keyint_min=23 / scenecut=40 / intra_refresh=0 / rc_lookahead=60 / rc=2pass / mbtree=1 / bitrate=7110 / ratetol=1.0 / qcomp=0.60 / qpmin=10 / qpmax=51 / qpstep=4 / cplxblur=20.0 / qblur=0.5 / ip_ratio=1.40 / aq=1:1.00
Default : Yes
Forced : No

Audio #1
ID : 2
Format : DTS
Format/Info : Digital Theater Systems
Codec ID : A_DTS
Duration : 1h 56mn
Bit rate mode : Constant
Bit rate : 754 Kbps
Channel(s) : 6 channels
Channel positions : Front: L C R, Side: L R, LFE
Sampling rate : 48.0 KHz
Bit depth : 24 bits
Compression mode : Lossy
Stream size : 626 MiB (8%)
Title : Castellano DTS 5.1
Language : Spanish
Default : Yes
Forced : No

Audio #2
ID : 3
Format : DTS
Format/Info : Digital Theater Systems
Codec ID : A_DTS
Duration : 1h 56mn
Bit rate mode : Constant
Bit rate : 1 510 Kbps
Channel(s) : 6 channels
Channel positions : Front: L C R, Side: L R, LFE
Sampling rate : 48.0 KHz
Bit depth : 24 bits
Compression mode : Lossy
Stream size : 1.22 GiB (15%)
Title : Inglés DTS 5.1
Language : English
Default : No
Forced : No

Audio #3
ID : 4
Format : AC-3
Format/Info : Audio Coding 3
Mode extension : CM (complete main)
Codec ID : A_AC3
Duration : 1h 56mn
Bit rate mode : Constant
Bit rate : 192 Kbps
Channel(s) : 2 channels
Channel positions : Front: L R
Sampling rate : 48.0 KHz
Bit depth : 16 bits
Compression mode : Lossy
Stream size : 159 MiB (2%)
Title : Inglés (comentarios 1) AC3 2.0
Language : English
Default : No
Forced : No

Audio #4
ID : 5
Format : AC-3
Format/Info : Audio Coding 3
Format profile : Dolby Digital
Mode extension : CM (complete main)
Codec ID : A_AC3
Duration : 1h 56mn
Bit rate mode : Constant
Bit rate : 192 Kbps
Channel(s) : 2 channels
Channel positions : Front: L R
Sampling rate : 48.0 KHz
Bit depth : 16 bits
Compression mode : Lossy
Stream size : 159 MiB (2%)
Title : Inglés (comentarios 2) AC3 2.0
Language : English
Default : No
Forced : No

Text #1
ID : 6
Format : VobSub
Muxing mode : zlib
Codec ID : S_VOBSUB
Codec ID/Info : The same subtitle format used on DVDs
Title : Castellano (forzados)
Language : Spanish
Default : Yes
Forced : Yes

Text #2
ID : 7
Format : VobSub
Muxing mode : zlib
Codec ID : S_VOBSUB
Codec ID/Info : The same subtitle format used on DVDs
Title : Castellano
Language : Spanish
Default : No
Forced : No

Text #3
ID : 8
Format : VobSub
Muxing mode : zlib
Codec ID : S_VOBSUB
Codec ID/Info : The same subtitle format used on DVDs
Title : Castellano (comentarios 1)
Language : Spanish
Default : No
Forced : No

Text #4
ID : 9
Format : VobSub
Muxing mode : zlib
Codec ID : S_VOBSUB
Codec ID/Info : The same subtitle format used on DVDs
Title : Castellano (comentarios 2)
Language : Spanish
Default : No
Forced : No

Text #5
ID : 10
Format : VobSub
Muxing mode : zlib
Codec ID : S_VOBSUB
Codec ID/Info : The same subtitle format used on DVDs
Title : Inglés
Language : English
Default : No
Forced : No

Text #6
ID : 11
Format : VobSub
Muxing mode : zlib
Codec ID : S_VOBSUB
Codec ID/Info : The same subtitle format used on DVDs
Title : Inglés (comentarios 1)
Language : English
Default : No
Forced : No

Text #7
ID : 12
Format : VobSub
Muxing mode : zlib
Codec ID : S_VOBSUB
Codec ID/Info : The same subtitle format used on DVDs
Title : Inglés (comentarios 2)
Language : English
Default : No
Forced : No


Imagen enviada



1 LINK
Turbobit

http://adf.ly/BY8Ce


Links de 500 Mbs, Intercambiables.

Imagen enviada
*DESCARGA AL MAXIMO, EL MEJOR*



http://adf.ly/BY8Gt
http://adf.ly/BY8Gu
http://adf.ly/BY8Gv
http://adf.ly/BY8Gw
http://adf.ly/BY8Gx
http://adf.ly/BY8Gy
http://adf.ly/BY8Gz
http://adf.ly/BY8H0
http://adf.ly/BY8H1
http://adf.ly/BY8H2
http://adf.ly/BY8H3
http://adf.ly/BY8H4
http://adf.ly/BY8H5
http://adf.ly/BY8H6
http://adf.ly/BY8H7
http://adf.ly/BY8H8
http://adf.ly/BY8H9


Imagen enviada



http://adf.ly/BY8NZ
http://adf.ly/BY8Na
http://adf.ly/BY8Nb
http://adf.ly/BY8Nc
http://adf.ly/BY8Nd
http://adf.ly/BY8Ne
http://adf.ly/BY8Nf
http://adf.ly/BY8Ng
http://adf.ly/BY8Nh
http://adf.ly/BY8Ni
http://adf.ly/BY8Nj
http://adf.ly/BY8Nk
http://adf.ly/BY8Nl
http://adf.ly/BY8Nm
http://adf.ly/BY8Nn
http://adf.ly/BY8No
http://adf.ly/BY8Np


Imagen enviada



http://adf.ly/BY8TK
http://adf.ly/BY8TL
http://adf.ly/BY8TM
http://adf.ly/BY8TN
http://adf.ly/BY8TO
http://adf.ly/BY8TP
http://adf.ly/BY8TQ
http://adf.ly/BY8TR
http://adf.ly/BY8TS
http://adf.ly/BY8TT
http://adf.ly/BY8TU
http://adf.ly/BY8TV
http://adf.ly/BY8TW
http://adf.ly/BY8TX
http://adf.ly/BY8TY
http://adf.ly/BY8Ta
http://adf.ly/BY8Tb



Imagen enviada




http://adf.ly/BY8Z3
http://adf.ly/BY8Z4
http://adf.ly/BY8Z5
http://adf.ly/BY8Z6
http://adf.ly/BY8Z7
http://adf.ly/BY8Z8
http://adf.ly/BY8Z9
http://adf.ly/BY8ZA
http://adf.ly/BY8ZB
http://adf.ly/BY8ZC
http://adf.ly/BY8ZD
http://adf.ly/BY8ZE
http://adf.ly/BY8ZF
http://adf.ly/BY8ZG
http://adf.ly/BY8ZH
http://adf.ly/BY8ZI
http://adf.ly/BY8ZJ
  • 0





Otros temas etiquetados con una o más de estas palabras clave: futuro, volver, Dr, einstein, Gratis, links

0 usuario(s) viendo este foro

0 miembros, 0 invitados, 0 usuarios anónimos

Ocultar Publicidad