Ir a contenido



Foto

American Pie:El Reencuentro[2012][BDRip 720p]DTS[Es-LATINO



  • Please log in to reply
No hay respuestas en este tema

#1 cadagoto

cadagoto

    Super - Warian@

  • Warianos
  • 4.706 mensajes
  • Sexo:

Escrito 30 de junio de 2012 - 02:10


American Pie:El Reencuentro[2012][BDRip 720p]AC3 5.1[Es-LATINO]DTS[Es-LATINO][En-US][Sub Forz][Comedia]

Imagen enviada

Ficha Técnica
TÍTULO: American Reunion
AÑO: 2012
PAÍS: Estados Unidos
DIRECTOR: Jon Hurwitz, Hayden Schlossberg
GUIÓN: Jon Hurwitz, Hayden Schlossberg (Personajes: Adam Herz)
MÚSICA: Lyle Workman
FOTOGRAFÍA: Daryn Okada
PRODUCTORA: Universal Pictures
GÉNERO: Comedia | Comedia juvenil. Secuela
REPARTO: Jason Biggs, Alyson Hannigan, Seann William Scott, Tara Reid, Mena Suvari, Chris Klein, Thomas Ian Nicholas, Jennifer Coolidge, Natasha Lyonne, Shannon Elizabeth, Eugene Levy, Tad Hilgenbrink, Eddie Kaye Thomas, Chris Owen, Molly Cheek, Dania Ramírez, Katrina Bowden, Rebecca De Mornay

Datos Técnicos

Aporte Exclusivo Por::::...CadagotoHD...::::
General
Unique ID                                : 212422906545339032302687199755646464465 (0x9FCF29E58D7417B392BED84D5402F1D1)
Complete name                            : P:\CadagotoHD\American Pie 4 Reunion 720p BDRip Audio Latino DTS Aporte Exclusivo Por CadagotoHD.mkv
Format                                   : Matroska
Format version                           : Version 2
File size                                : 6.38 GiB
Duration                                 : 1h 53mn
Overall bit rate                         : 8 021 Kbps
Movie name                               : Aporte Exclusvio Por :::...CadagotoHD...:::
Encoded date                             : UTC 2012-06-30 04:50:50
Writing application                      : mkvmerge v4.4.0 ('Die Wiederkehr') built on Oct 31 2010 21:52:48
Writing library                          : libebml v1.0.0 + libmatroska v1.0.0

Video
ID                                       : 1
Format                                   : AVC
Format/Info                              : Advanced Video Codec
Format profile                           : High@L4.1
Format settings, CABAC                   : Yes
Format settings, ReFrames                : 5 frames
Muxing mode                              : Header stripping
Codec ID                                 : V_MPEG4/ISO/AVC
Duration                                 : 1h 53mn
Bit rate                                 : 5 360 Kbps
Width                                    : 1 280 pixels
Height                                   : 688 pixels
Display aspect ratio                     : 1.860
Frame rate                               : 23.976 fps
Color space                              : YUV
Chroma subsampling                       : 4:2:0
Bit depth                                : 8 bits
Scan type                                : Progressive
Bits/(Pixel*Frame)                       : 0.254
Stream size                              : 4.15 GiB (65%)
Title                                    : Aporte Exclusvio Por :::...CadagotoHD...:::
Writing library                          : x264 core 125 r2200 999b753
Encoding settings                        : cabac=1 / ref=5 / deblock=1:0:0 / analyse=0x3:0x133 / me=umh / subme=7 / psy=1 / psy_rd=1.00:0.00 / mixed_ref=1 / me_range=16 / chroma_me=1 / trellis=1 / 8x8dct=1 / cqm=0 / deadzone=21,11 / fast_pskip=0 / chroma_qp_offset=-2 / threads=12 / lookahead_threads=2 / sliced_threads=0 / nr=0 / decimate=1 / interlaced=0 / bluray_compat=0 / constrained_intra=0 / bframes=3 / b_pyramid=2 / b_adapt=1 / b_bias=0 / direct=1 / weightb=1 / open_gop=0 / weightp=2 / keyint=250 / keyint_min=23 / scenecut=40 / intra_refresh=0 / rc_lookahead=40 / rc=2pass / mbtree=1 / bitrate=5360 / ratetol=1.0 / qcomp=0.60 / qpmin=0 / qpmax=69 / qpstep=4 / cplxblur=20.0 / qblur=0.5 / ip_ratio=1.40 / aq=1:1.00
Language                                 : English
Default                                  : Yes
Forced                                   : No

Audio #1
ID                                       : 2
Format                                   : AC-3
Format/Info                              : Audio Coding 3
Mode extension                           : CM (complete main)
Codec ID                                 : A_AC3
Duration                                 : 1h 53mn
Bit rate mode                            : Constant
Bit rate                                 : 384 Kbps
Channel(s)                               : 6 channels
Channel positions                        : Front: L C R, Side: L R, LFE
Sampling rate                            : 48.0 KHz
Bit depth                                : 16 bits
Compression mode                         : Lossy
Stream size                              : 313 MiB (5%)
Title                                    : Audio Latino AC3 5.1 :::...CadagotoHD...:::
Language                                 : Spanish
Default                                  : Yes
Forced                                   : Yes

Audio #2
ID                                       : 3
Format                                   : DTS
Format/Info                              : Digital Theater Systems
Codec ID                                 : A_DTS
Duration                                 : 1h 53mn
Bit rate mode                            : Constant
Bit rate                                 : 755 Kbps
Channel(s)                               : 6 channels
Channel positions                        : Front: L C R, Side: L R, LFE
Sampling rate                            : 48.0 KHz
Bit depth                                : 24 bits
Compression mode                         : Lossy
Stream size                              : 614 MiB (9%)
Title                                    : Audio Latino DTS 755 Kbps  :::...CadagotoHD..:::
Default                                  : No
Forced                                   : No

Audio #3
ID                                       : 4
Format                                   : DTS
Format/Info                              : Digital Theater Systems
Codec ID                                 : A_DTS
Duration                                 : 1h 53mn
Bit rate mode                            : Constant
Bit rate                                 : 1 510 Kbps
Channel(s)                               : 6 channels
Channel positions                        : Front: L C R, Side: L R, LFE
Sampling rate                            : 48.0 KHz
Bit depth                                : 24 bits
Compression mode                         : Lossy
Delay relative to video                  : 11ms
Stream size                              : 1.20 GiB (19%)
Title                                    : Ingles DTS :::...CadagotoHD...:::
Language                                 : English
Default                                  : No
Forced                                   : No

Text #1
ID                                       : 5
Format                                   : UTF-8
Codec ID                                 : S_TEXT/UTF8
Codec ID/Info                            : UTF-8 Plain Text
Title                                    : Sub Esp :::...CadagotoHD...:::
Default                                  : Yes
Forced                                   : No

Text #2
ID                                       : 6
Format                                   : UTF-8
Codec ID                                 : S_TEXT/UTF8
Codec ID/Info                            : UTF-8 Plain Text
Title                                    : Sub Forzados  :::...CadagotoHD...:::
Default                                  : No
Forced                                   : No


Aporte Exclusivo Por::::...CadagotoHD...::::

Sinopsis
Un grupo de viejos amigos vuelven a reunirse. Jim (Jason Biggs) y Michelle (Alyson Hannigan) siguen felizmente casados, aunque hay una vecina que se ha enamorado de él. Además, la cinta sexual con Nadia se ha convertido en uno de los videos más vistos de Youtube. Por su parte, Oz (Chris Klein) vive en una mansión de Malibú, pero su novia parece sólo interesada por su dinero. Mientras tanto, la vida de Stifler (Seann William Scott) sigue siendo un desastre. Heather (Mena Suvari) sale con un cirujano que intenta parecer más joven, y Finch (Eddie Kaye Thomas), que ha viajado por el mundo, intenta ligar con Trish, una camarera amiga de Michelle.


Imagen enviada

Imagen enviada

Imagen enviada

Imagen enviada



Links Intercambiables De 500 Mb!
(Abrir el link en tu Navegador, Eperar 8 Segundos Y Pulsar AQUI)
Imagen enviada
¡Descargar AQUI!
http://3031b184.miniurls.co




Los Archivos .REV Reemplazan A Cualquiera de Los Demas Rars!
Imagen enviada
¡Aquellos Archivos Sustituyen Partes Off O Dañadas , Úsalos!





  • 0


Venta De Dolares Paypal
El Valor De Cada Dolar Es el Valor Del Dia
Solo Reales Interesados enviar Correo a Cadagoto@gmail.com




Compra Tu Premiun Desde AQUI Y Descarga A Maxima Velocidad

[center]http://ul.to/ref/2144263
1cfa199e35c7b638be97676d120a8.jpg

.




0 usuario(s) viendo este foro

0 miembros, 0 invitados, 0 usuarios anónimos

Ocultar Publicidad