Jump to content

Search the Community

Showing results for tags 'uhd'.

  • Search By Tags

    Type tags separated by commas.
  • Search By Author

Content Type


Forums

  • Zona Comunidad (Contacto, Preguntas, Avisos, Novedades)
    • Comunicados Chilecomparte
    • Reglas Chilecomparte
    • Sugerencias y Contacto con la Administración
  • Zona de Conversación (Amor, Sexualidad, Cultura, Tecnología, Fútbol)
    • Amores, Relaciones & Sexualidad
    • Artes Culinarias, Gastronomía & Datos de Cocina
    • CineAdictos y TvManiacos (Conversación)
    • Ciencias Ocultas , Enigmas & Casos Paranormales
    • Chile Zoo
    • ChileComparte Wrestling Federation
    • Debates
    • Deportes y Actividades Físicas
    • Ingeniería y Tecnología (Conversación)
    • Ecología & Medio Ambiente
    • Religión
    • Todo Tuercas y Motores
    • Vida, Familia, Salud y Conciencia
    • Temas en general
  • Zona de Ocio (Vídeos Youtube, Humor, Chistes, Relax, Risa, Chistoso, Cómico)
    • Relax
    • Lujuria Femenina
    • Humor & Videos Varios
  • Zona Académica (Artes, Ciencias, Filosofía, Historia, Matemáticas, Estudiantes)
    • Artes Gráficas & Visuales
    • Filosofía
    • Historia y Ciencias Sociales
    • Rincón del Estudiante
    • El Rincón Científico
  • Zona Geek (Noticias, Manuales, Soporte, Hardware, Software, Webmaster)
    • Informática: Noticias, Manuales, Trucos & Reviews
    • Soporte PC: Hardware & Software
    • TI - Programacion & Webmasters
    • Hardware, Modding & Overcloking
    • Receptores Satelitales y Accesorios
    • Telecomunicaciones, Internet & Redes
    • Electricidad & Electrónica
  • Zona Micro$oft (Software, Programas, Juegos, Noticias, Información)
    • Appz
    • P2p & P2m
  • Zona de Animé (Películas, Música, Revistas, Información, Conversación)
    • Animeadictos (No Descargas)
    • Mangas
    • Moviez & Series
    • Música de Anime & J-Music
  • Zona E-Books y Literatura (Libros Online, Cuentos Infantiles, PDF)
    • Literatura (Conversación)
    • Literatura Infantil & Autodidaccia
    • Literatura Contemporánea, Técnica y Científica
    • Literatura Clásica, Medieval & Moderna
    • Comics, Historietas y Novelas Gráficas
    • Cs. Sociales, Filosofía y Humanidades
    • Revistaz
    • Cursos Multimedia & VideoTutorialez
    • Literatura Gastronomica y Artes Culinarias
    • Literatura Chile Zoo
  • Zona Audiovisual (Películas, Conciertos, Series, Documentales, Subtítulos)
    • Series de TV
    • Documentales
    • Moviez
  • Zona Gamer (PC, Playstation, Xbox, Wii, Nintendo, Noticias, Trucos)
    • Juegos (Conversación)
    • Gamez PC
    • Consolaz
  • Zona Musical (Mp3s, Canciones, Noticias, Grupos, Partituras, Tocatas)
    • Música, Bandas & Músicos (Conversación)
    • Mp3z
    • Videos & Conciertos
  • Zona Telefonía, Smartphones & Tablets (Iphone, Ipad, Android, iOS)
    • Noticias, Informaciones & Temas Generales
    • Rincón Android
    • Rincón iPhone / iPad / iPod (touch, classic, nano, shuffle, video)
  • Zona GNU/Linux Open Source (Software, Juegos, Noticias, Información)
    • Aportes varios, Manuales y Minicómos
    • Debian-Ubuntu
    • RedHat-Suse
  • Zona Apple (Software, Juegos, Noticias, Iphone, Ipad, Ipod, Mac)
    • Noticias, Informaciones, Tutoriales & Guías
    • Soporte Mac
    • Mac Appz
    • Mac Gamez
  • Información Adicional
  • Informaciones, Noticias & Temas Generales
  • Soporte
  • Aplicaciones
  • Papelera
  • Tutoriales

Find results in...

Find results that contain...


Date Created

  • Start

    End


Last Updated

  • Start

    End


Filter by number of...

Joined

  • Start

    End


Group


AIM


MSN


Website URL


ICQ


Yahoo


Jabber


Skype


Lugar


Intereses

Found 2 results

  1. K.G.F: Chapter 1 K.G.F: Chapter 1 | Año: 2018 | UHD 4K | MKV | AC3 5.1 | Audios: Hindi Original | Subtítulos: Español, Inglés | | Comprimido: Si (Con Registro de Reparación) | 13 Partes (990 MB) | 11.6 GB Título original: K.G.F: Chapter 1 Año: 2018 País: India India Dirección: Prashanth Neel Guion: Prashanth Neel Música: Ravi Basrur Fotografía: Bhuvan Gowda Reparto: Yash, Srinidhi Shetty, Ramya Krishnan, Achyuth Kumar, Nasser, Vasishta N. Simha, Srinivasa Murthy, Ayyappa P. Sharma, Joy Badlani, Neenasam Ashwath Productora: Hombale Films Género: Acción. Drama Ambientada en los años 80, se centra en un hombre que lucha frente a los opresores. General Unique ID : 30841526585209289543460542228824772711 (0x1733DCA94957E8735050C86009E6D067) Complete name : K.G.F.Chapter.1.2018.WEB.DL.UHD.4K.HiNDi.ORiGiNAL.x265.AC3.mkv Format : Matroska Format version : Version 4 File size : 11.7 GiB Duration : 2 h 34 min Overall bit rate : 10.8 Mb/s Movie name : K.G.F.Chapter.1.2018.WEB.DL.UHD.4K.HiNDi.ORiGiNAL.x265.AC3 Encoded date : UTC 2022-04-05 20:15:31 Writing application : mkvmerge v66.0.0 ('Josie') 64-bit Writing library : libebml v1.4.2 + libmatroska v1.6.4 Video ID : 1 Format : HEVC Format/Info : High Efficiency Video Coding Format profile : Main [email protected]@High Codec ID : V_MPEGH/ISO/HEVC Duration : 2 h 34 min Bit rate : 10.1 Mb/s Width : 3 840 pixels Height : 1 632 pixels Display aspect ratio : 2.35:1 Frame rate mode : Constant Frame rate : 25.000 FPS Color space : YUV Chroma subsampling : 4:2:0 Bit depth : 10 bits Bits/(Pixel*Frame) : 0.065 Stream size : 11.0 GiB (94%) Language : English Default : Yes Forced : No Color range : Limited Color primaries : BT.709 Transfer characteristics : BT.709 Matrix coefficients : BT.709 Audio ID : 2 Format : E-AC-3 Format/Info : Enhanced AC-3 Commercial name : Dolby Digital Plus Codec ID : A_EAC3 Duration : 2 h 34 min Bit rate mode : Constant Bit rate : 640 kb/s Channel(s) : 6 channels Channel layout : L R C LFE Ls Rs Sampling rate : 48.0 kHz Frame rate : 31.250 FPS (1536 SPF) Compression mode : Lossy Stream size : 709 MiB (6%) Language : Hindi Service kind : Complete Main Default : No Forced : No Text #1 ID : 3 Format : UTF-8 Codec ID : S_TEXT/UTF8 Codec ID/Info : UTF-8 Plain Text Duration : 2 h 28 min Bit rate : 61 b/s Count of elements : 2204 Stream size : 66.8 KiB (0%) Title : Español Language : Spanish Default : Yes Forced : No Text #2 ID : 4 Format : UTF-8 Codec ID : S_TEXT/UTF8 Codec ID/Info : UTF-8 Plain Text Duration : 2 h 28 min Bit rate : 56 b/s Count of elements : 2205 Stream size : 61.2 KiB (0%) Title : English [Full] Language : English Default : No Forced : No Menu 00:00:00.000 : en:Statutory Warning 00:01:08.000 : en:Thank you Credits, Studio Logos 00:02:42.000 : en:Scene 3 00:07:50.000 : en:Title Sequence 00:08:07.000 : en:Scene 5 00:17:30.000 : en:Scene 6 00:27:36.000 : en:Scene 7 00:36:17.000 : en:Scene 8 00:52:48.000 : en:Scene 9 01:14:53.000 : en:Scene 10 01:24:32.000 : en:Scene 11 01:29:35.000 : en:Scene 12 01:40:18.000 : en:Scene 13 01:49:37.000 : en:Scene 14 01:58:17.000 : en:Scene 15 02:03:22.000 : en:Scene 16 02:13:54.000 : en:Scene 17 02:19:50.000 : en:Scene 18 02:31:40.000 : en:End Credits Descargar desde UPLOADED - RAPIDGATOR - SEND - UP-4EVER https://justpaste.it/9h8ep Para descomprimir el archivo debes usar el Winrar v6.11 https://justpaste.it/9lq47 Si los enlaces están muertos solo avísame respondiendo en el tema y lo soluciono. Siempre estoy suscrito a mis aportes.
×
×
  • Create New...