Jump to content

Search the Community

Showing results for tags 'ingles'.

  • Search By Tags

    Type tags separated by commas.
  • Search By Author

Content Type


Forums

  • Zona Comunidad (Contacto, Preguntas, Avisos, Novedades)
    • Comunicados Chilecomparte
    • Reglas Chilecomparte
    • Sugerencias y Contacto con la Administración
  • Zona de Conversación (Amor, Sexualidad, Cultura, Tecnología, Fútbol)
    • Amores, Relaciones & Sexualidad
    • Artes Culinarias, Gastronomía & Datos de Cocina
    • CineAdictos y TvManiacos (Conversación)
    • Ciencias Ocultas , Enigmas & Casos Paranormales
    • Chile Zoo
    • ChileComparte Wrestling Federation
    • Debates
    • Deportes y Actividades Físicas
    • Ingeniería y Tecnología (Conversación)
    • Ecología & Medio Ambiente
    • Religión
    • Todo Tuercas y Motores
    • Vida, Familia, Salud y Conciencia
    • Temas en general
  • Zona de Ocio (Vídeos Youtube, Humor, Chistes, Relax, Risa, Chistoso, Cómico)
    • Relax
    • Lujuria Femenina
    • Humor & Videos Varios
  • Zona Académica (Artes, Ciencias, Filosofía, Historia, Matemáticas, Estudiantes)
    • Artes Gráficas & Visuales
    • Filosofía
    • Historia y Ciencias Sociales
    • Rincón del Estudiante
    • El Rincón Científico
  • Zona Geek (Noticias, Manuales, Soporte, Hardware, Software, Webmaster)
    • Informática: Noticias, Manuales, Trucos & Reviews
    • Soporte PC: Hardware & Software
    • TI - Programacion & Webmasters
    • Hardware, Modding & Overcloking
    • Receptores Satelitales y Accesorios
    • Telecomunicaciones, Internet & Redes
    • Electricidad & Electrónica
  • Zona Micro$oft (Software, Programas, Juegos, Noticias, Información)
    • Appz
    • P2p & P2m
  • Zona de Animé (Películas, Música, Revistas, Información, Conversación)
    • Animeadictos (No Descargas)
    • Mangas
    • Moviez & Series
    • Música de Anime & J-Music
  • Zona E-Books y Literatura (Libros Online, Cuentos Infantiles, PDF)
    • Literatura (Conversación)
    • Literatura Infantil & Autodidaccia
    • Literatura Contemporánea, Técnica y Científica
    • Literatura Clásica, Medieval & Moderna
    • Comics, Historietas y Novelas Gráficas
    • Cs. Sociales, Filosofía y Humanidades
    • Revistaz
    • Cursos Multimedia & VideoTutorialez
    • Literatura Gastronomica y Artes Culinarias
    • Literatura Chile Zoo
  • Zona Audiovisual (Películas, Conciertos, Series, Documentales, Subtítulos)
    • Series de TV
    • Documentales
    • Moviez
  • Zona Gamer (PC, Playstation, Xbox, Wii, Nintendo, Noticias, Trucos)
    • Juegos (Conversación)
    • Gamez PC
    • Consolaz
  • Zona Musical (Mp3s, Canciones, Noticias, Grupos, Partituras, Tocatas)
    • Música, Bandas & Músicos (Conversación)
    • Mp3z
    • Videos & Conciertos
  • Zona Telefonía, Smartphones & Tablets (Iphone, Ipad, Android, iOS)
    • Noticias, Informaciones & Temas Generales
    • Rincón Android
    • Rincón iPhone / iPad / iPod (touch, classic, nano, shuffle, video)
  • Zona GNU/Linux Open Source (Software, Juegos, Noticias, Información)
    • Aportes varios, Manuales y Minicómos
    • Debian-Ubuntu
    • RedHat-Suse
  • Zona Apple (Software, Juegos, Noticias, Iphone, Ipad, Ipod, Mac)
    • Noticias, Informaciones, Tutoriales & Guías
    • Soporte Mac
    • Mac Appz
    • Mac Gamez
  • Información Adicional
  • Informaciones, Noticias & Temas Generales
  • Soporte
  • Aplicaciones
  • Papelera
  • Tutoriales

Find results in...

Find results that contain...


Date Created

  • Start

    End


Last Updated

  • Start

    End


Filter by number of...

Joined

  • Start

    End


Group


AIM


MSN


Website URL


ICQ


Yahoo


Jabber


Skype


Lugar


Intereses

  1. Los creadores de WET nos plantean un curioso juego de acción protagonizado por un oso de peluche, que rompe en ira y desata una feroz venganza por no haber sido invitado por otros osos a una fiesta de cumpleaños. Plataforma:Xbox 360 También para:PS3 iPhone Disponible en: Tiendas / Oferta: Cómpralo por solo ?? euros Desarrollador: A2M Distribuidor: Digital Bros Género: Acción, Shooter (Abstracto) Jugadores: 1-16 (Competitivo: 2-64 / Cooperativo: 2-10) Idioma: Manual: Español, Textos: Español, Voces: Español Lanzamiento: 23 de junio de 2010 (Pegi: +16) http://www.youtube.com/watch?v=_id2D8zP-cs CLICK AQUI PARA VER LINKS ¡NO SE OLVIDEN DE AGRADECER :)!
  2. TÍTULO: Cleanskin AÑO: 2012 DURACIÓN: 108 min PAÍS: Reino Unido DIRECTOR: Hadi Hajaig GENERO: Thriller REPARTO: Sean Bean, Abhin Galeya, Charlotte Rampling, Peter Polycarpou, Tuppence Middleton, Tom Burke, Sam Douglas, Michelle Ryan, James Fox Formato: MKV Calidad : BluRay 720p Video : MKV | 1280×528 | 23.98 fps | 4290 kb/s Audio: Ingles | DTS | 1510Kb/s Subtítulos: Si (dentro del rar) Tamaño: 4.37 GB Ewan es un agente del Servicio Secreto cuya misión consiste en capturar y eliminar a Ash, un terrorista suicida, y a la célula a la que pertenece. Mientras tanto, Ash se enfrenta a un dilema moral. [VIDEO]http://www.youtube.com/watch?v=HvLl7BKPfbg[/VIDEO] NOTA: Para ver los links has click en el servidor que mas te guste Dejame un mensaje , si los links se han caido, para poderlos resubir inmediantamente.Gracias
  3. La película mostrará inicialmente a un trío de recién nacidos en un orfanato para aparecer más tarde como adultos. Para salvar la casa de su infancia, los tres chiflados se verán involucrados en un complot de asesinato, al mismo tiempo que protagonizarán un reality show televisivo de gran éxito. Título: Los tres chiflados Título original: The Three Stooges País: USA Estreno en USA: 13/04/2012 Estreno en España: 17/08/2012 Productora: 20th Century Fox Director: Bobby Farrelly, Peter Farrelly Guión: Bobby Farrelly, Peter Farrelly, Mike Cerrone Reparto: Chris Diamantopoulos, Will Sasso, Sean Hayes, Jane Lynch, Larry David, Stephen Collins, Sofia Vergara, Jennifer Hudson The.Three.Stooges.2012.DVDRip.XviD-AMIABLE
  4. Remake de “Reykjavík-Rotterdam” (Óskar Jónasson, 2008). Hace tiempo que Chris Farraday (Mark Wahlberg) dejó el mundo de la delincuencia. Pero, cuando su cuñado Andy (Caleb Landry Jones) fracasa en un asunto de drogas que le había encargado su implacable jefe Tim Briggs (Giovanni Ribisi), Chris se verá obligado a volver al contrabando para pagar la deuda de Andy. Empieza por reunir un equipo de primera con la ayuda de Sebastian, su mejor amigo (Ben Foster). La operación consiste en ir a Panamá para traer millones de dólares en billetes falsos. Pero las cosas no salen según lo previsto: disponiendo de sólo unas horas para hacerse con el dinero, Chris deberá utilizar todas sus habilidades para eludir una traicionera red criminal de narcos, policías y sicarios, antes de que su esposa Kate (Kate Beckinsale) y sus hijos se conviertan en objetivo de la banda. TÍTULO ORIGINAL: Contraband OTROS TÍTULOS: Contrabando AÑO: 2012 DURACIÓN: 110 min. PAÍS: USA DIRECTOR: Baltasar Kormákur GUIÓN: Aaron Guzikowski MÚSICA: Clinton Shorter FOTOGRAFÍA: Barry Ackroyd REPARTO: Mark Wahlberg, Kate Beckinsale, Giovanni Ribisi, Ben Foster, David O’Hara, Diego Luna, J.K. Simmons, Lukas Haas, Caleb Landry Jones PRODUCTORA: Universal Pictures / Working Title Films GÉNERO: Thriller. Acción | Remake General Complete name : Contraband.2012.1080p.BluRay.X264-Latino-Chamako.mkv Format : Matroska Format version : Version 2 File size : 8.14 GiB Duration : 1h 49mn Overall bit rate : 10.6 Mbps Movie name : Chamako - Contraband 2012 1080p Latino Encoded date : UTC 2012-04-12 15:55:42 Writing application : mkvmerge v3.4.0 ('Rapunzel') built on May 15 2010 09:38:20 Writing library : libebml v0.8.0 + libmatroska v0.9.0 Video ID : 1 Format : AVC Format/Info : Advanced Video Codec Format profile : [email protected] Format settings, CABAC : Yes Format settings, ReFrames : 5 frames Codec ID : V_MPEG4/ISO/AVC Duration : 1h 49mn Bit rate : 8 482 Kbps Width : 1 920 pixels Height : 816 pixels Display aspect ratio : 2.35:1 Frame rate : 23.976 fps Color space : YUV Chroma subsampling : 4:2:0 Bit depth : 8 bits Scan type : Progressive Bits/(Pixel*Frame) : 0.226 Stream size : 6.33 GiB (78%) Title : Chamako - Contraband Writing library : x264 core 122 r2184 5c85e0a Encoding settings : cabac=1 / ref=5 / deblock=1:0:0 / analyse=0x3:0x113 / me=umh / subme=8 / psy=1 / psy_rd=1.00:0.00 / mixed_ref=1 / me_range=16 / chroma_me=1 / trellis=1 / 8x8dct=1 / cqm=0 / deadzone=21,11 / fast_pskip=1 / chroma_qp_offset=-2 / threads=12 / sliced_threads=0 / nr=0 / decimate=1 / interlaced=0 / bluray_compat=0 / constrained_intra=0 / bframes=3 / b_pyramid=2 / b_adapt=2 / b_bias=0 / direct=3 / weightb=1 / open_gop=0 / weightp=2 / keyint=240 / keyint_min=24 / scenecut=40 / intra_refresh=0 / rc_lookahead=50 / rc=2pass / mbtree=1 / bitrate=8482 / ratetol=1.0 / qcomp=0.60 / qpmin=0 / qpmax=69 / qpstep=4 / cplxblur=20.0 / qblur=0.5 / ip_ratio=1.40 / aq=1:1.00 Language : English Default : No Forced : No Audio #1 ID : 2 Format : AC-3 Format/Info : Audio Coding 3 Mode extension : CM (complete main) Codec ID : A_AC3 Duration : 1h 49mn Bit rate mode : Constant Bit rate : 640 Kbps Channel(s) : 6 channels Channel positions : Front: L C R, Side: L R, LFE Sampling rate : 48.0 KHz Bit depth : 16 bits Compression mode : Lossy Stream size : 502 MiB (6%) Title : Latino 5.1 Language : Spanish Default : Yes Forced : No Audio #2 ID : 3 Format : DTS Format/Info : Digital Theater Systems Codec ID : A_DTS Duration : 1h 49mn Bit rate mode : Constant Bit rate : 1 510 Kbps Channel(s) : 6 channels Channel positions : Front: L C R, Side: L R, LFE Sampling rate : 48.0 KHz Bit depth : 24 bits Compression mode : Lossy Delay relative to video : 11ms Stream size : 1.16 GiB (14%) Title : ENglish Language : English Default : No Forced : No Text #1 ID : 4 Format : UTF-8 Codec ID : S_TEXT/UTF8 Codec ID/Info : UTF-8 Plain Text Title : English Language : English Default : No Forced : No Text #2 ID : 5 Format : UTF-8 Codec ID : S_TEXT/UTF8 Codec ID/Info : UTF-8 Plain Text Title : Spanish Language : Spanish Default : No Forced : No Text #3 ID : 6 Format : UTF-8 Codec ID : S_TEXT/UTF8 Codec ID/Info : UTF-8 Plain Text Title : Spanish Forzados Language : Spanish Default : Yes Forced : Yes Menu 00:00:00.000 : en:00:00:00.000 00:08:26.256 : en:00:08:26.256 00:14:46.260 : en:00:14:46.260 00:19:12.860 : en:00:19:12.860 00:24:52.366 : en:00:24:52.366 00:29:12.626 : en:00:29:12.626 00:34:39.744 : en:00:34:39.744 00:38:56.376 : en:00:38:56.376 00:45:36.943 : en:00:45:36.943 00:52:17.760 : en:00:52:17.760 00:59:56.092 : en:00:59:56.092 01:05:31.344 : en:01:05:31.344 01:10:03.991 : en:01:10:03.991 01:16:15.112 : en:01:16:15.112 01:21:17.372 : en:01:21:17.372 01:25:34.046 : en:01:25:34.046 01:30:15.910 : en:01:30:15.910 01:35:26.888 : en:01:35:26.888 01:39:01.144 : en:01:39:01.144 01:44:32.099 : en:01:44:32.099 Instrucciones de Descarga Añadir el link al Jdownloader, y empieza a descargar del host que mas te agrade 19 PARTES INTERCAMBIABLES + 1 ARCHIVO REV Y SFV Contraband (2012) BDRip 1080p Español Latino 5.1/Ingles Sub.Español CONTRASEÑA: chamako (todo minusculas) Si Algun link cae solo enviame un MP con el link del post y lo resubiré
  5. TÍTULO: Night Wolf AÑO: 2012 DURACIÓN: 86 min. PAÍS: USA DIRECTOR: Jonathan Glendening GÉNERO: Terror REPARTO: Gemma Atkinson, Joshua Bowman and Isabella Calthorpe Menu: Si Extras: Si Formato: NTSC Calidad: DVDR Audio: Ingles 5.1 Subtítulos: Español (Latino),Ingles Tamaño: 3.76 GB Una luna llena cuelga del cielo y los relámpagos atraviesan las oscuras nubes de tormenta. Sarah Tyler (Isabella Calthorpe) regresa al hogar de su atormentada familia situada en un pueblo aislado, a manera de visita obligada. A medida que la tormenta se incrementa, sus familiares y amigos se refugian de la noche y del mundo exterior. Pero algo emerge de la fuerte lluvia y de la oscuridad. Algo que oculta un gran secreto tan devastador que, en una noche, puede desgarrar una familia completa.Atrapada, Sarah, sus hermanos y amigos deberán usar sus mentes y fuerza física para sobrevivir, no sólo a la cosa que los caza uno por uno, sino a sus propias trampas a medida que el asediado grupo se enfrenta contra sí mismo. ¿Podrán sobrevivir al horror que los acecha? ¿O el enemigo ya está entre ellos? ¿Podrán sobrevivir 13 horas?. NOTA: Para ver los links has click en el servidor que mas te guste Dejame un mensaje , si los links se han caido, para poderlos resubir inmediantamente.Gracias
  6. TÍTULO: Chronicle AÑO: 2012 DURACIÓN: 83 min. PAÍS: USA DIRECTOR: Josh Trank GÉNERO: Thriller, Fantastico REPARTO: Dane DeHaan, Alex Russell, Michael B. Jordan, Michael Kelly, Ashley Hinshaw, Anna Wood, Joe Vaz, Luke Tyler, Matthew Dylan Roberts Menu: Si Extras: Si Formato: NTSC Calidad: DVDR Audio: Ingles 5.1, Español Latino 2.0 Subtítulos: Español (Latino),Ingles Tamaño: 4.45 GB Tres amigos de Portland se ven expuestos a una misteriosa sustancia en un bosque y, como resultado, empiezan a desarrollar increíbles poderes. Entonces deciden trabajar juntos para perfeccionar sus habilidades, pero una serie de problemas personales acaban por enfrentarlos. NOTA: Para ver los links has click en el servidor que mas te guste Dejame un mensaje , si los links se han caido, para poderlos resubir inmediantamente.Gracias
  7. TÍTULO: Contraband AÑO: 2012 DURACIÓN: 110 min. PAÍS: USA DIRECTOR: Baltasar Kormákur GÉNERO: Thriller, Acción REPARTO: Mark Wahlberg, Kate Beckinsale, Giovanni Ribisi, Ben Foster, David O'Hara, Diego Luna, J.K. Simmons, Lukas Haas, Caleb Landry Jones Menu: Si Extras: Si Formato: NTSC Calidad: DVD9 Audio: Ingles 5.1, Español Latino 5.1, Frances 5.1 Subtítulos: Español (Latino),Ingles, Frances Tamaño: 7.32 GB Remake de "Reykjavík-Rotterdam" (Óskar Jónasson, 2008). Hace tiempo que Chris Farraday (Mark Wahlberg) dejó el mundo de la delincuencia. Pero, cuando su cuñado Andy (Caleb Landry Jones) fracasa en un asunto de drogas que le había encargado su implacable jefe Tim Briggs (Giovanni Ribisi), Chris se verá obligado a volver al contrabando para pagar la deuda de Andy. Empieza por reunir un equipo de primera con la ayuda de Sebastian, su mejor amigo (Ben Foster). La operación consiste en ir a Panamá para traer millones de dólares en billetes falsos. Pero las cosas no salen según lo previsto: disponiendo de sólo unas horas para hacerse con el dinero, Chris deberá utilizar todas sus habilidades para eludir una traicionera red criminal de narcos, policías y sicarios, antes de que su esposa Kate (Kate Beckinsale) y sus hijos se conviertan en objetivo de la banda. NOTA: Para ver los links has click en el servidor que mas te guste Dejame un mensaje , si los links se han caido, para poderlos resubir inmediantamente.Gracias
  8. La legendaria guerrera vampira Selene (Kate Beckinsale) se enfrenta a su mayor y más poderoso adversario, al tiempo que descubre un perturbador secreto que cambiará todo por lo que siempre luchó. Quince años han pasado desde que Selene y su amante Michael, híbrido entre humano y licántropo, derrotaran al Vampiro Mayor Marcus en Underworld Evolution. En esos años la humanidad ha descubierto la existencia tanto del clan de los vampiros como del de los licántropos y se ha lanzado a una lucha encarnizada para erradicar ambas especies. Selene, capturada durante el genocidio, se despierta después de más de una década y se da cuenta de que se encuentra cautiva en un laboratorio herméticamente cerrado en Antigen, una poderosa corporación biotecnológica que se dedica a desarrollar la vacuna en contra de los virus que han creado a vampiros y licántropos. Titulo: Underworld: El despertar Titulo original: Underworld Awakening Pais: USA Estreno en USA: 20/01/2012 Estreno en España: 27/01/2012 Productora: Screen Gems (Sony) Director: Mans Marlind, Bjorn Stein Guión: John Hlavin, J. Michael Straczynski Reparto: Kate Beckinsale, Stephen Rea, Michael Ealy, Theo James, India Eisley, Sandrine Holt, Charles Dance, Adam Greydon Reid, Kris Holden-Ried, Catlin Adams, Jacob Blair, Robert Lawrenson, Lee Majdoub, John Innes, Tyler McClendon, Panou, Ian Rozylo, Benita Ha, Christian Tessier, Kurt Max Runte, Mark Gibbon, Richard Cetrone, Dan Payne Calificacion: No recomendada para menores de 16 edad runtime: 88 minutes imdb url: http://www.imdb.com/title/tt1496025/ imdb rating: 6.6/10 source: Retail R1 NTSC DVD9 Package Type: IMG Encode: UNTOUCHED Language: Ingles 5.1/Frances 5.1/Español Latino 5.1 Subtitle: Ingles/Español/Frances/ko/zh/th Instrucciones de Descarga Añadir el link al Jdownloader, y empieza a descargar del host que mas te agrade 9 PARTES INTERCAMBIABLES + 1 ARCHIVO REV+1SFV Underworld Awakening (2012) DVD Español Latino/Ingles By Chamako CONTRASEÑA: chamako (todo minusculas) Si Algun link cae solo enviame un MP con el link del post y lo resubiré
  9. La legendaria guerrera vampira Selene (Kate Beckinsale) se enfrenta a su mayor y más poderoso adversario, al tiempo que descubre un perturbador secreto que cambiará todo por lo que siempre luchó. Quince años han pasado desde que Selene y su amante Michael, híbrido entre humano y licántropo, derrotaran al Vampiro Mayor Marcus en Underworld Evolution. En esos años la humanidad ha descubierto la existencia tanto del clan de los vampiros como del de los licántropos y se ha lanzado a una lucha encarnizada para erradicar ambas especies. Selene, capturada durante el genocidio, se despierta después de más de una década y se da cuenta de que se encuentra cautiva en un laboratorio herméticamente cerrado en Antigen, una poderosa corporación biotecnológica que se dedica a desarrollar la vacuna en contra de los virus que han creado a vampiros y licántropos. Titulo: Underworld: El despertar Titulo original: Underworld Awakening Pais: USA Estreno en USA: 20/01/2012 Estreno en España: 27/01/2012 Productora: Screen Gems (Sony) Director: Mans Marlind, Bjorn Stein Guión: John Hlavin, J. Michael Straczynski Reparto: Kate Beckinsale, Stephen Rea, Michael Ealy, Theo James, India Eisley, Sandrine Holt, Charles Dance, Adam Greydon Reid, Kris Holden-Ried, Catlin Adams, Jacob Blair, Robert Lawrenson, Lee Majdoub, John Innes, Tyler McClendon, Panou, Ian Rozylo, Benita Ha, Christian Tessier, Kurt Max Runte, Mark Gibbon, Richard Cetrone, Dan Payne Calificacion: No recomendada para menores de 16 edad General Complete name : Underworld.1080p.Latino.Ingles.By.Chamako.mkv Format : Matroska Format version : Version 2 File size : 8.62 GiB Duration : 1h 28mn Overall bit rate : 13.9 Mbps Movie name : Chamako - Underworld El Despertar 2012 1080p Latino Encoded date : UTC 2012-04-21 20:08:39 Writing application : mkvmerge v3.4.0 ('Rapunzel') built on May 15 2010 09:38:20 Writing library : libebml v0.8.0 + libmatroska v0.9.0 Video ID : 1 Format : AVC Format/Info : Advanced Video Codec Format profile : [email protected] Format settings, CABAC : Yes Format settings, ReFrames : 5 frames Codec ID : V_MPEG4/ISO/AVC Duration : 1h 28mn Bit rate : 11.8 Mbps Width : 1 920 pixels Height : 800 pixels Display aspect ratio : 2.40:1 Frame rate : 23.976 fps Color space : YUV Chroma subsampling : 4:2:0 Bit depth : 8 bits Scan type : Progressive Bits/(Pixel*Frame) : 0.320 Stream size : 7.16 GiB (83%) Title : Underworld El Despertar 1080p Latino Writing library : x264 core 123 r2192+664+27 600ff69 tMod+MixAQ [[email protected]:2:0 X86_64] Encoding settings : cabac=1 / ref=5 / deblock=1:-3:-3 / analyse=0x3:0x133 / me=umh / subme=10 / psy=1 / fade_compensate=0.00 / psy_rd=1.10:0.00 / mixed_ref=1 / me_range=64 / chroma_me=1 / trellis=2 / 8x8dct=1 / cqm=0 / deadzone=21,11 / fast_pskip=0 / chroma_qp_offset=-2 / threads=12 / sliced_threads=0 / nr=0 / decimate=0 / interlaced=0 / bluray_compat=0 / constrained_intra=0 / fgo=0 / bframes=8 / b_pyramid=2 / b_adapt=2 / b_bias=0 / direct=3 / weightb=1 / open_gop=0 / weightp=2 / keyint=240 / keyint_min=24 / scenecut=40 / intra_refresh=0 / rc_lookahead=240 / rc=2pass / mbtree=1 / bitrate=11800 / ratetol=1.0 / qcomp=0.70 / qpmin=0 / qpmax=69 / qpstep=4 / cplxblur=20.0 / qblur=0.5 / ip_ratio=1.40 / aq=1 / aq-strength=1.04 / aq-sensitivity=10.00 / aq-ifactor=1.00 / aq-pfactor=1.00 / aq-bfactor=1.00 / aq2=0 Language : English Default : No Forced : No Audio #1 ID : 2 Format : AC-3 Format/Info : Audio Coding 3 Mode extension : CM (complete main) Codec ID : A_AC3 Duration : 1h 28mn Bit rate mode : Constant Bit rate : 384 Kbps Channel(s) : 6 channels Channel positions : Front: L C R, Side: L R, LFE Sampling rate : 48.0 KHz Bit depth : 16 bits Compression mode : Lossy Delay relative to video : 1s 0ms Stream size : 243 MiB (3%) Title : Latino Language : Spanish Default : Yes Forced : No Audio #2 ID : 3 Format : DTS Format/Info : Digital Theater Systems Codec ID : A_DTS Duration : 1h 28mn Bit rate mode : Constant Bit rate : 1 510 Kbps Channel(s) : 6 channels Channel positions : Front: L C R, Side: L R, LFE Sampling rate : 48.0 KHz Bit depth : 16 bits Compression mode : Lossy Delay relative to video : 11ms Stream size : 957 MiB (11%) Language : English Default : No Forced : No Audio #3 ID : 4 Format : AC-3 Format/Info : Audio Coding 3 Format profile : Dolby Digital Mode extension : CM (complete main) Codec ID : A_AC3 Duration : 1h 28mn Bit rate mode : Constant Bit rate : 192 Kbps Channel(s) : 2 channels Channel positions : Front: L R Sampling rate : 48.0 KHz Bit depth : 16 bits Compression mode : Lossy Stream size : 122 MiB (1%) Title : commentary Language : English Default : No Forced : No Text #1 ID : 5 Format : PGS Codec ID : S_HDMV/PGS Codec ID/Info : The same subtitle format used on BDs/HD-DVDs Language : English Default : No Forced : No Text #2 ID : 6 Format : UTF-8 Codec ID : S_TEXT/UTF8 Codec ID/Info : UTF-8 Plain Text Title : Spanish Language : Spanish Default : No Forced : No Text #3 ID : 7 Format : PGS Codec ID : S_HDMV/PGS Codec ID/Info : The same subtitle format used on BDs/HD-DVDs Title : commentary Language : English Default : No Forced : No Menu 00:00:00.000 : en:00:00:00.000 00:04:26.057 : en:00:04:26.057 00:07:45.340 : en:00:07:45.340 00:16:20.188 : en:00:16:20.188 00:21:11.812 : en:00:21:11.812 00:24:49.988 : en:00:24:49.988 00:30:29.828 : en:00:30:29.828 00:35:31.755 : en:00:35:31.755 00:40:04.944 : en:00:40:04.944 00:45:23.930 : en:00:45:23.930 00:52:30.731 : en:00:52:30.731 00:57:21.563 : en:00:57:21.563 01:02:53.937 : en:01:02:53.937 01:07:43.726 : en:01:07:43.726 01:12:18.501 : en:01:12:18.501 01:16:41.430 : en:01:16:41.430 Instrucciones de Descarga Añadir el link al Jdownloader, y empieza a descargar del host que mas te agrade 18 PARTES INTERCAMBIABLES+1 ARCHIVO REV+SFV Underworld Awakening (2012) BDRip 1080p Español Latino/Ingles By Chamako CONTRASEÑA: chamako (todo minusculas) Si Algun link cae solo enviame un MP con el link del post y lo resubiré
  10. TÍTULO: Prometheus AÑO: 2012 DURACIÓN: 123 min PAÍS: USA DIRECTOR: Ridley Scott GENERO: Ciencia Ficcion, Terror REPARTO: Noomi Rapace, Michael Fassbender, Charlize Theron, Idris Elba, Guy Pearce, Logan Marshall-Green, Sean Harris, Rafe Spall, Emun Elliott, Benedict Wong, Kate Dickie, Patrick Wilson, Lucy Hutchinson, Giannina Facio Formato: AVI Calidad : DVDRip Video : XivD | 720x304 | 25.00 fps | 1514 Kbps Audio: Ingles | AC3 5.1 | 48000 | 448Kb/s Subtítulos: Español Latino Tamaño: 1.63 GB Un grupo de científicos y exploradores emprende un viaje espacial a un remoto planeta, una rara estrella recién descubierta, donde sus límites físicos y mentales serán puestos a prueba. El motivo de la misión es que los humanos creen que allá podrán encontrar la respuesta a las preguntas más profundas y al mayor de los misterios: el origen de la vida en la Tierra. [video=youtube;sftuxbvGwiU] NOTA: Para ver los links has click en el servidor que mas te guste Dejame un mensaje si los links se han caido para poderlos resubir inmediantamente.Gracias
  11. TÍTULO: Act Of Valor AÑO: 2012 DURACIÓN: 111 min PAÍS: USA DIRECTOR: Mike McCoy, Scott Waugh GÉNERO: Acción, Thriller REPARTO: Roselyn Sanchez, Timothy Gibbs, Emilio Rivera, Jason Cottle, Nestor Serrano, Formato: AVI Calidad: DVDRip Audio: Ingles Subtítulos: Español Latino Tamaño: 1.37 GB La historia sigue a un escuadrón de Navy Seal en una misión encubierta para rescatar a un agente de la CIA secuestrado, y en el proceso acabar con una compleja red de células terroristas determinada a liquidar a los Estados Unidos a toda costa. NOTA: Para ver los links has click en el servidor que mas te guste Dejame un mensaje , si los links se han caido, para poderlos resubir inmediantamente.Gracias
  12. TÍTULO: Thurgood AÑO: 2011 DURACIÓN: 105 min PAÍS: USA DIRECTOR: Michael Stevens GÉNERO: Drama/Politica REPARTO: Laurence Fishburne Menu: Si Extras: No Formato: NTSC Calidad: DVDR Audio: Ingles 5.1, Español Latino 2.0 Subtítulos: Español (Latino),Ingles Tamaño: 4.36 GB “Thurgood” es el nombre de la nueva película del reconocido actor Laurence Fishburne. Consiste en un filme grabado en vivo en el teatro de Eisenhower en la ciudad de Washington D.C. La historia ha sido escrita por el ganador del Oscar y un Emmy Award, George Stevens Jr. y se centra en el Black History Month. NOTA: Para ver los links has click en el servidor que mas te guste Dejame un mensaje , si los links se han caido, para poderlos resubir inmediantamente.Gracias
  13. TÍTULO: Los Vengadores AÑO: 2012 DURACIÓN: 135 min PAÍS: USA DIRECTOR: Joss Whedon GÉNERO: Fantástico, Acción, Ciencia ficción, Aventuras REPARTO: Robert Downey Jr., Chris Evans, Mark Ruffalo, Chris Hemsworth, Scarlett Johansson, Jeremy Renner, Tom Hiddleston, Samuel L. Jackson, Cobie Smulders, Clark Gregg, Gwyneth Paltrow, Stellan Skarsgård, Paul Bettany, Alexis Denisof, Jerzy Skolimowski, Tina Benko, Powers Boothe, Harry Dean Stanton, Stan Lee Menu: Si Extras: No Norma: NTSC Formato: DVD 5 Audio: Ingles 5.1 Subtítulos: Español Latino, Ingles Tamaño: 3.5 GB Cuando un enemigo inesperado surge como una gran amenaza para la seguridad mundial, Nick Fury, director de la Agencia SHIELD, decide reclutar a un equipo para salvar al mundo de un desastre casi seguro. Adaptación del cómic de Marvel "Los Vengadores", el legendario grupo de superhéroes formado por, entre otros, Ironman, Hulk, Thor y Capitán América. [video=youtube;VF6kHPcZ_3o]http://www.youtube.com/watch?v=VF6kHPcZ_3o NOTA: Para ver los links has click en el servidor que mas te guste Dejame un mensaje si los links se han caido para poderlos resubir inmediantamente.Gracias
  14. TÍTULO: Citizen Gangster AÑO: 2011 DURACIÓN: 104 min PAÍS: Canada DIRECTOR: Nathan Morlando GÉNERO: Drama, Crimen, Hechos reles REPARTO: Brian Cox, Scott Speedman, Kevin Durand Menu: Si Extras: Si Norma: NTSC Formato: DVDR1 Audio: Ingles 5.1 Subtítulos: Español Latino, Ingles Tamaño: 4.35 GB Basada en hechos reales. Narra la historia de un padre de familia que se convierte en atracador de bancos. [video=youtube;ZWbmVz4IOt0] NOTA: Para ver los links has click en el servidor que mas te guste Dejame un mensaje si los links se han caido para poderlos resubir inmediantamente.Gracias
  15. Marvel Studios presenta “Marvel Los Vengadores”, el equipo de super héroes más espectacular de todos los tiempos con iconos como Iron Man, El Increíble Hulk, Thor, Capitán América, Ojo de Halcón y Viuda Negra. Cuando un enemigo inesperado amenaza con poner en peligro la seguridad mundial, Nick Fury, Director de la agencia internacional para el mantenimiento de la paz, conocida con el nombre de SHIELD, necesita encontrar urgentemente un equipo que salve al mundo del mayor de los desastres. Así empieza una búsqueda por todo el mundo para reclutar personal. Título: Los Vengadores Título original: The Avengers País: USA Estreno en USA: 04/05/2012 Estreno en España: 27/04/2012 Productora:Marvel Enterprises Director: Joss Whedon Guión: Zak Penn, Joss Whedon Reparto: Chris Evans, Chris Hemsworth, Mark Ruffalo, Robert Downey Jr., Scarlett Johansson, Jeremy Renner, Samuel L. Jackson, Cobie Smulders, Don Cheadle, Clark Gregg, Lou Ferrigno, Tom Hiddleston Calificación: No recomendada para menores de 7 años General Nombre completo : H:\NLSE10-11\descarga\DEBSAMN5I5\The.Avengers.2012.BDRip.720p.- Latino.By.Chamako.avi Formato : AVI Formato/Info : Audio Video Interleave Formato del perfil : OpenDML Tamaño del archivo : 4,69GIB Duración : 2h 22min. Tasa de bits total : 4 694Kbps Película : The Avengers 2012 BRRip 720p Latino By Chamako Director : Chamako Género : Fantástico Fecha de grabación : 21-08-2012 Aplicación de codifición : VirtualDubMod 1.5.10.2 (build 2542/release) Librería de codificación : VirtualDubMod build 2542/release Derechos de autor : Chamako Video ID : 0 Formato : MPEG-4 Visual Formato del perfil : Advanced [email protected] Ajustes del formato, BVOP : 1 Ajustes del formato, Qpel : No Ajustes del formato, GMC : No warppoints Ajustes del formato, Matrix : Personlizado Modo Muxing : Flujo de bits empaquetado ID Códec : XVID ID Códec/Pista : XviD Duración : 2h 22min. Tasa de bits : 3 848Kbps Ancho : 1 280pixeles Alto : 720pixeles Relación de aspecto : 16:9 Velocidad de cuadro : 23,976fps ColorSpace : YUV ChromaSubsampling : 4:2:0 BitDepth/String : 8bits Tipo de exploración : Progresivo Bits/(Pixel*cuadro) : 0.174 Tamaño de pista : 3,84GIB (82%) Librería de codificación : XviD 1.2.1 (UTC 2008-12-04) Audio #1 ID : 1 Formato : AC-3 Formato/Info : Audio Coding 3 Format_Settings_ModeExtension : CM (complete main) Ajustes del formato, Endianness : Big ID Códec : 2000 Duración : 2h 22min. Tipo de tasa de bits : Constante Tasa de bits : 384Kbps Canal(es) : 6canales Posiciones del canal : Front: L C R, Side: L R, LFE Velocidad de muestreo : 48,0KHz BitDepth/String : 16bits Tamaño de pista : 393MB (8%) Alineación : Dividir a través entrelazado Entrelazado, duración : 42 ms (1,00fotograma de video) Entrelazado, duración de precarga : 500 ms Audio #2 ID : 2 Formato : AC-3 Formato/Info : Audio Coding 3 Format_Settings_ModeExtension : CM (complete main) Ajustes del formato, Endianness : Big ID Códec : 2000 Duración : 2h 22min. Tipo de tasa de bits : Constante Tasa de bits : 448Kbps Canal(es) : 6canales Posiciones del canal : Front: L C R, Side: L R, LFE Velocidad de muestreo : 48,0KHz BitDepth/String : 16bits Tamaño de pista : 458MB (10%) Alineación : Dividir a través entrelazado Entrelazado, duración : 42 ms (1,00fotograma de video) Entrelazado, duración de precarga : 500 ms 1 ARCHIVO DE RECUPERACIÓN + 1 SFV DE COMPROBACIÓN DE RAR Añadir el link al Jdownloader o MiPony, y empieza a descargar del host que mas te agrade SERVIDORES DISPONIBLES The Avengers 2012 BRRip 720p Español Latino/ Ingles By Chamako CONTRASEÑA: chamako (todo minusculas) Si Algun link cae solo enviame un MP con el link del post y lo resubiré
  16. Secuela de “Batman Begins”, en la que Batman (Christian Bale) asume más riesgos en su guerra contra el crimen. Con la ayuda del teniente Jim Gordon (Gary Oldman) y el fiscal de distrito Harvey Dent (Aaron Eckhart), Batman se propone desmantelar las organizaciones criminales que infestan las calles de la ciudad. La asociación demuestra ser efectiva, pero pronto se verán atrapados en un reino del caos desatado por una mente criminal en auge conocida por los aterrorizados habitantes de Gotham como Joker (Heath Ledger). Titulo: El Caballero Oscuro Titulo Original: The Dark Knight Género: Acción, Aventuras Nacionalidad: USA Año: 2008 Director: Christopher Nolan Guion: Jonathan Nolan Reparto: Christian Bale, Heath Ledger, Michael Caine, Gary Oldman, Maggie Gyllenhaal, Morgan Freeman, Eric Roberts Fecha de Estreno: Miércoles, 13 de Agosto de 2008 Fuente................: DVD Norma.................: NTSC Tiempo................: 02:32:00 Pantalla..............: WS 16:9 Vídeo.................: Intacto Audios................: Inglés 5.1, Español Latino 5.1 Subtítulos............: Español Latino, Inglés Menú..................: SI Extras................: SI ARCHIVO DE RECUPERACIÓN + 1 SFV DE COMPROBACIÓN DE RAR Añadir el link al Jdownloader o MiPony, y empieza a descargar del host que mas te agrade http://27f096f2.megaline.co CONTRASEÑA: chamako (todo minusculas) Si Algun link cae solo enviame un MP con el link del post y lo resubiré
  17. Basada en hechos reales. Relata la historia del primer grupo de pilotos negros que sirvió en la Segunda Guerra Mundial (1939-1945). Su misión consistía en escoltar a los bombarderos americanos. Producida por George Lucas.. Título: Título original: Red Tails País: USA Estreno en USA: 20/01/2012 Estreno en España: Productora: Lucasfilm Director: Anthony Hemingway Guión: John Ridley Reparto: Cuba Gooding Jr., Terrence Howard, Bryan Cranston, Nate Parker, David Oyelowo, Tristan Wilds, Cliff Smith, Kevin Phillips, Rick Otto, Lee Tergesen, Andre Royo, Ne-Yo, Elijah Kelley, Marcus T. Paulk, Leslie Odom Jr., Michael B. Jordan, Jazmine Sullivan, Edwina Finley, Daniela Ruah, Stacie Davis General Complete name : Red Tails 2012 1080p Bluray Latino By Chamako.mkv Format : Matroska Format version : Version 2 File size : 11.3 GiB Duration : 2h 5mn Overall bit rate : 12.9 Mbps Movie name : Chamako - Red Tails 2012 1080p Latino Encoded date : UTC 2012-05-04 21:28:53 Writing application : mkvmerge v5.3.0 ('I could have danced') built on Feb 9 2012 10:38:07 Writing library : libebml v1.2.3 + libmatroska v1.3.0 Video ID : 1 Format : AVC Format/Info : Advanced Video Codec Format profile : [email protected] Format settings, CABAC : Yes Format settings, ReFrames : 5 frames Muxing mode : Header stripping Codec ID : V_MPEG4/ISO/AVC Duration : 2h 5mn Bit rate : 10.9 Mbps Width : 1 920 pixels Height : 800 pixels Display aspect ratio : 2.40:1 Frame rate : 23.976 fps Color space : YUV Chroma subsampling : 4:2:0 Bit depth : 8 bits Scan type : Progressive Bits/(Pixel*Frame) : 0.297 Stream size : 9.33 GiB (83%) Title : Red.Tails.2012 Writing library : x264 core 120 r2146 bcd41db Encoding settings : cabac=1 / ref=5 / deblock=1:-3:-3 / analyse=0x3:0x113 / me=umh / subme=10 / psy=1 / psy_rd=1.05:0.10 / mixed_ref=1 / me_range=32 / chroma_me=1 / trellis=2 / 8x8dct=1 / cqm=0 / deadzone=21,11 / fast_pskip=0 / chroma_qp_offset=-2 / threads=8 / sliced_threads=0 / nr=0 / decimate=1 / interlaced=0 / bluray_compat=0 / constrained_intra=0 / bframes=6 / b_pyramid=2 / b_adapt=2 / b_bias=0 / direct=3 / weightb=1 / open_gop=0 / weightp=2 / keyint=250 / keyint_min=23 / scenecut=40 / intra_refresh=0 / rc_lookahead=40 / rc=2pass / mbtree=0 / bitrate=10942 / ratetol=1.0 / qcomp=0.70 / qpmin=0 / qpmax=69 / qpstep=4 / cplxblur=20.0 / qblur=0.5 / vbv_maxrate=40000 / vbv_bufsize=40000 / nal_hrd=none / ip_ratio=1.40 / pb_ratio=1.30 / aq=2:1.00 Language : English Default : No Forced : No Audio #1 ID : 2 Format : AC-3 Format/Info : Audio Coding 3 Mode extension : CM (complete main) Muxing mode : Header stripping Codec ID : A_AC3 Duration : 2h 5mn Bit rate mode : Constant Bit rate : 448 Kbps Channel(s) : 6 channels Channel positions : Front: L C R, Side: L R, LFE Sampling rate : 48.0 KHz Bit depth : 16 bits Compression mode : Lossy Stream size : 401 MiB (3%) Title : Latino 5.1 Language : Spanish Default : Yes Forced : No Audio #2 ID : 3 Format : DTS Format/Info : Digital Theater Systems Muxing mode : Header stripping Codec ID : A_DTS Duration : 2h 5mn Bit rate mode : Constant Bit rate : 1 510 Kbps Channel(s) : 6 channels Channel positions : Front: L C R, Side: L R, LFE Sampling rate : 48.0 KHz Bit depth : 24 bits Compression mode : Lossy Stream size : 1.32 GiB (12%) Title : English Language : English Default : No Forced : No Text #1 ID : 4 Format : UTF-8 Codec ID : S_TEXT/UTF8 Codec ID/Info : UTF-8 Plain Text Title : English Language : English Default : No Forced : No Text #2 ID : 5 Format : PGS Muxing mode : zlib Codec ID : S_HDMV/PGS Codec ID/Info : The same subtitle format used on BDs/HD-DVDs Language : English Default : No Forced : No Text #3 ID : 6 Format : UTF-8 Codec ID : S_TEXT/UTF8 Codec ID/Info : UTF-8 Plain Text Title : Spanish Language : Spanish Default : No Forced : No Text #4 ID : 7 Format : UTF-8 Codec ID : S_TEXT/UTF8 Codec ID/Info : UTF-8 Plain Text Title : Spanish Forzados Language : Spanish Default : Yes Forced : Yes Menu 00:00:00.000 : en:00:00:00.000 00:04:16.882 : en:00:04:16.882 00:11:16.467 : en:00:11:16.467 00:14:29.952 : en:00:14:29.952 00:17:54.699 : en:00:17:54.699 00:19:33.089 : en:00:19:33.089 00:22:49.618 : en:00:22:49.618 00:25:16.932 : en:00:25:16.932 00:28:06.602 : en:00:28:06.602 00:30:34.249 : en:00:30:34.249 00:38:30.433 : en:00:38:30.433 00:44:38.926 : en:00:44:38.926 00:46:44.677 : en:00:46:44.677 00:51:41.432 : en:00:51:41.432 00:54:07.369 : en:00:54:07.369 00:58:42.853 : en:00:58:42.853 01:05:10.657 : en:01:05:10.657 01:10:51.789 : en:01:10:51.789 01:14:51.362 : en:01:14:51.362 01:22:40.122 : en:01:22:40.122 01:25:24.077 : en:01:25:24.077 01:28:40.565 : en:01:28:40.565 01:32:04.769 : en:01:32:04.769 01:33:41.825 : en:01:33:41.825 01:35:42.695 : en:01:35:42.695 01:38:54.470 : en:01:38:54.470 01:40:19.305 : en:01:40:19.305 01:44:29.889 : en:01:44:29.889 01:50:02.429 : en:01:50:02.429 01:54:55.097 : en:01:54:55.097 01:57:07.354 : en:01:57:07.354 01:59:34.667 : en:01:59:34.667 ARCHIVO DE RECUPERACIÓN + 1 SFV DE COMPROBACIÓN DE RAR Añadir el link al Jdownloader o MiPony, y empieza a descargar del host que mas te agrade SERVIDORES DISPONIBLES Red Tails (2012) BDRip mkv 1080p Latino 5.1/Ingles DTS Sub.Forzados By Chamako CONTRASEÑA: chamako (todo minusculas) Si Algun link cae solo enviame un MP con el link del post y lo resubiré
  18. TÍTULO: This Means War AÑO: 2012 DURACIÓN: 98 min. PAÍS: USA DIRECTOR: McG GÉNERO: Comedia, Romance REPARTO: Reese Witherspoon, Chris Pine, Tom Hardy, Til Schweiger, Chelsea Handler, Angela Bassett Menu: Si Extras: Si Formato: NTSC Calidad: DVDR Audio: Ingles 5.1 Subtítulos: Español (Latino),Ingles Tamaño: 4.36 GB Dos agentes de la CIA (Chris Pine y Tom Hardy), grandes amigos desde la infancia, se enamoran de la misma mujer (Reese Witherspoon). Su amistad desaparece y se enzarzan en una batalla de proporciones épicas que pondrá en jaque a la ciudad de Nueva York. NOTA: Para ver los links has click en el servidor que mas te guste Dejame un mensaje , si los links se han caido, para poderlos resubir inmediantamente.Gracias
  19. Diez años después de los sucesos de “Furia de titanes”, Perseo (Sam Worthington) está decidido a llevar una vida tranquila con su hijo Helio. Sin embargo, los dioses, debilitados por la falta de fe de la humanidad, pierden el control sobre los Titanes, cuyo líder no es otro que Kronos, el padre de Zeus (Liam Neeson), Hades (Ralph Fiennes) y Poseidón (Danny Huston). Cuando Hades y Ares (Edgar Ramírez) llegan a un acuerdo con Kronos para capturar a Zeus, entonces Perseo tendrá que abandonar su apacible vida para rescatarlo, misión en la que mcuenta con la ayuda de Andrómeda (Rosamund Pike), Agénor (Toby Kebbell) y Hefesto (Bill Nighy). TÍTULO ORIGINAL: Wrath of the Titans (Clash of the Titans 2) OTROS TITULOS: Furia de Titanes 2 / Ira de Titanes 3D AÑO: 2012 DURACIÓN: 99 min. PAÍS Estados Unidos DIRECTOR: Jonathan Liebesman GUIÓN: Greg Berlanti MÚSICA: Javier Navarrete FOTOGRAFÍA: Ben Davis REPARTO: Sam Worthington, Liam Neeson, Ralph Fiennes, Bill Nighy, Rosamund Pike, Danny Huston, Toby Kebbell, Édgar Ramírez, John Bell PRODUCTORA: Warner Bros. Pictures GÉNERO: Fantástico. Acción | Antigua Grecia. Mitología. Secuela. 3-D General Complete name : Chamako - Furia de Titanes 2 3D 1080P Latino.mkv Format : Matroska Format version : Version 2 File size : 10.8 GiB Duration : 1h 39mn Overall bit rate : 15.6 Mbps Movie name : Chamako - Furia de Titanes 2 2012 3D 180P Latino Encoded date : UTC 2012-06-14 15:18:50 Writing application : mkvmerge v3.4.0 ('Rapunzel') built on May 15 2010 09:38:20 Writing library : libebml v0.8.0 + libmatroska v0.9.0 Video ID : 1 Format : AVC Format/Info : Advanced Video Codec Format profile : [email protected] MultiView_Count : 2 MultiView_Layout : Both Eye Format settings, CABAC : Yes Format settings, ReFrames : 4 frames Codec ID : V_MPEG4/ISO/AVC Duration : 1h 39mn Bit rate : 13.4 Mbps Width : 1 920 pixels Height : 1 080 pixels Display aspect ratio : 16:9 Frame rate : 23.976 fps Color space : YUV Chroma subsampling : 4:2:0 Bit depth : 8 bits Scan type : Progressive Bits/(Pixel*Frame) : 0.270 Stream size : 9.32 GiB (86%) Title : Chamako - Furia de Titanes 2 3D Writing library : x264 core 125 r2200 999b753 Encoding settings : cabac=1 / ref=4 / deblock=1:-3:-3 / analyse=0x3:0x113 / me=umh / subme=7 / psy=1 / psy_rd=1.00:0.15 / mixed_ref=1 / me_range=16 / chroma_me=1 / trellis=1 / 8x8dct=1 / cqm=0 / deadzone=21,11 / fast_pskip=1 / chroma_qp_offset=-3 / threads=12 / lookahead_threads=2 / sliced_threads=0 / nr=0 / decimate=1 / interlaced=0 / bluray_compat=0 / constrained_intra=0 / bframes=3 / b_pyramid=2 / b_adapt=1 / b_bias=0 / direct=3 / weightb=1 / open_gop=0 / weightp=2 / keyint=250 / keyint_min=23 / scenecut=40 / intra_refresh=0 / rc_lookahead=40 / rc=crf / mbtree=1 / crf=20.0 / qcomp=0.60 / qpmin=10 / qpmax=69 / qpstep=4 / ip_ratio=1.40 / aq=1:1.00 Default : Yes Forced : No Audio #1 ID : 2 Format : AC-3 Format/Info : Audio Coding 3 Mode extension : CM (complete main) Format settings, Endianness : Big Codec ID : A_AC3 Duration : 1h 39mn Bit rate mode : Constant Bit rate : 384 Kbps Channel(s) : 6 channels Channel positions : Front: L C R, Side: L R, LFE Sampling rate : 48.0 KHz Bit depth : 16 bits Compression mode : Lossy Stream size : 273 MiB (2%) Title : Latino 5.1 Language : Spanish Default : Yes Forced : No Audio #2 ID : 3 Format : DTS Format/Info : Digital Theater Systems Codec ID : A_DTS Duration : 1h 39mn Bit rate mode : Constant Bit rate : 1 510 Kbps Channel(s) : 6 channels Channel positions : Front: L C R, Side: L R, LFE Sampling rate : 48.0 KHz Bit depth : 24 bits Compression mode : Lossy Delay relative to video : 11ms Stream size : 1.05 GiB (10%) Title : English DTS Language : English Default : No Forced : No Text ID : 4 Format : UTF-8 Codec ID : S_TEXT/UTF8 Codec ID/Info : UTF-8 Plain Text Title : Spanish Language : Spanish Default : Yes Forced : No Menu 00:00:00.000 : en:00:00:00.000 00:09:24.856 : en:00:09:24.856 00:20:07.123 : en:00:20:07.123 00:30:53.060 : en:00:30:53.060 00:40:02.317 : en:00:40:02.317 00:48:46.882 : en:00:48:46.882 01:00:21.743 : en:01:00:21.743 01:10:16.421 : en:01:10:16.421 01:19:18.712 : en:01:19:18.712 01:30:33.803 : en:01:30:33.803 ARCHIVO DE RECUPERACIÓN + 1 SFV DE COMPROBACIÓN DE RAR Añadir el link al Jdownloader o MiPony, y empieza a descargar del host que mas te agrade PUTLOCKER - JUMBOFILES - FREAKSHARE - BITSHARE - RAPIDGATOR http://d379664b.(Palabra Censurada, está prohibido el SPAM) CONTRASEÑA: chamako (todo minusculas) Si Algun link cae solo enviame un MP con el link del post y lo resubiré
  20. Cuando un propietario codicioso de un casino de Las Vegas amenaza con despedir y quitar las pensiones a su gama baja de personal, conserjes, floristas, y reparadores, se ven obligados a tomar el asunto en sus propias manos para igualar las probabilidades. Calidad: DVDRip Tamaño: 700MB Audio. Ingles Subtituos: Español Formato: AVI 1 LINK http://freakshare.com/files/3bcp840i/STLV12DRIPchamako.rar.html http://bitshare.com/files/2kmpuqej/STLV12DRIPchamako.rar.html 3 PARTES INTERCAMBIABLES FreakShare http://freakshare.com/files/f1wrilto/STLEN12DVRPChamako.part1.rar.html http://freakshare.com/files/y2nfqyvy/STLEN12DVRPChamako.part2.rar.html http://freakshare.com/files/4mnr4fck/STLEN12DVRPChamako.part3.rar.html BitShare http://bitshare.com/files/hzfe3avh/STLEN12DVRPChamako.part1.rar.html http://bitshare.com/files/5qr635pz/STLEN12DVRPChamako.part2.rar.html http://bitshare.com/files/w8kkiyg4/STLEN12DVRPChamako.part3.rar.html Uploaded http://ul.to/vt3r4tk5 http://ul.to/pv91k8h3 http://ul.to/dvtmedba CONTRASEÑA: chamako (todo minusculas) Si Algun link cae solo enviame un MP con el link del post y lo resubiré
  21. En el año 1752, Joshua y Naomi Collins junto con su hijo Barnabas zarpan de Liverpool, Inglaterra para comenzar una nueva vida en los Estados Unidos. Pero incluso todo un océano no es suficiente para escapar de la misteriosa maldición que les acosa. Han pasado dos décadas, y Barnabas (Johnny Depp) tiene el mundo a sus pies, o al menos la ciudad de Collinsport, Maine. Barnabas es rico, poderoso y un playboy empedernido... hasta que comete el grave error de romper el corazón de Angelique Brouchard (Eva Green). Una bruja en todos los sentidos de la palabra, Angelique le condena a un destino peor que la muerte, convirtiéndolo en un vampiro y enterrándolo vivo. Título: Sombras tenebrosas Título original: Dark Shadows País: USA Estreno en USA: 11/05/2012 Estreno en España: 11/05/2012 Lanzamiento en DVD (alquiler): 12/09/2012 Estreno en DVD (venta): 25/09/2012 Estreno en Blu-ray: 25/09/2012 Productora: Warner Bros. Pictures Director: Tim Burton Guión: John August, Seth Grahame-Smith Reparto: Johnny Depp, Michelle Pfeiffer, Helena Bonham Carter, Eva Green, Jackie Earle Haley, Jonny Lee Miller, Chloë Grace Moretz, Bella Heathcote, Gulliver McGrath, Christopher Lee, Ray Shirley, Alice Cooper Calificación: No recomendada para menores de 7 años General Nombre completo : Dark.Shadows.2012.720p.BRRiP.Latino.By.Chamako.avi Formato : AVI Formato/Info : Audio Video Interleave Formato del perfil : OpenDML Tamaño del archivo : 3,23GIB Duración : 1h 53min. Tasa de bits total : 4 095Kbps Película : Dark Shadow 2012 BRRip 720p Latino Director : Chamako Aplicación de codifición : VirtualDubMod 1.5.10.2 (build 2542/release) Librería de codificación : VirtualDubMod build 2542/release Derechos de autor : Chamako Video ID : 0 Formato : MPEG-4 Visual Formato del perfil : Advanced [email protected] Ajustes del formato, BVOP : 2 Ajustes del formato, Qpel : No Ajustes del formato, GMC : No warppoints Ajustes del formato, Matrix : Default (H.263) Modo Muxing : Flujo de bits empaquetado ID Códec : XVID ID Códec/Pista : XviD Duración : 1h 53min. Tasa de bits : 3 247Kbps Ancho : 1 280pixeles Alto : 720pixeles Relación de aspecto : 16:9 Velocidad de cuadro : 23,976fps ColorSpace : YUV ChromaSubsampling : 4:2:0 BitDepth/String : 8bits Tipo de exploración : Progresivo Bits/(Pixel*cuadro) : 0.147 Tamaño de pista : 2,56GIB (79%) Librería de codificación : XviD 1.2.1 (UTC 2008-12-04) Audio #1 ID : 1 Formato : AC-3 Formato/Info : Audio Coding 3 Format_Settings_ModeExtension : CM (complete main) Ajustes del formato, Endianness : Big ID Códec : 2000 Duración : 1h 53min. Tipo de tasa de bits : Constante Tasa de bits : 448Kbps Canal(es) : 6canales Posiciones del canal : Front: L C R, Side: L R, LFE Velocidad de muestreo : 48,0KHz BitDepth/String : 16bits Tamaño de pista : 362MB (11%) Alineación : Dividir a través entrelazado Entrelazado, duración : 42 ms (1,00fotograma de video) Entrelazado, duración de precarga : 500 ms Audio #2 ID : 2 Formato : AC-3 Formato/Info : Audio Coding 3 Format_Settings_ModeExtension : CM (complete main) Ajustes del formato, Endianness : Big ID Códec : 2000 Duración : 1h 53min. Tipo de tasa de bits : Constante Tasa de bits : 384Kbps Canal(es) : 6canales Posiciones del canal : Front: L C R, Side: L R, LFE Velocidad de muestreo : 48,0KHz BitDepth/String : 16bits Tamaño de pista : 311MB (9%) Alineación : Dividir a través entrelazado Entrelazado, duración : 42 ms (1,00fotograma de video) Entrelazado, duración de precarga : 500 ms 1ARCHIVO DE RECUPERACIÓN Añadir el link al Jdownloader o MiPony, y empieza a descargar del host que mas te agrade SERVIDORES DISPONIBLES Dark Shadows 2012 BRRip 720p Español Latino By Chamako CONTRASEÑA: chamako (todo minusculas) Si Algun link cae solo enviame un MP con el link del post y lo resubiré
  22. TÍTULO: Men in Black 3 AÑO: 2012 DURACIÓN: 103 min PAÍS: USA DIRECTOR: Barry Sonnenfeld GÉNERO: Ciencia Ficcion, Comedia REPARTO: Will Smith, Josh Brolin, Tommy Lee Jones, Alice Eve, Michael Stuhlbarg, Emma Thompson, Bill Hader, Jemaine Clement, Rip Torn, Nicole Scherzinger Menu: Si Extras: Si Norma: NTSC Formato: DVD5 Audio: Ingles 5.1, Español Latino 5.1 Subtítulos: Español Latino, Ingles, Otros Tamaño: 4.35 GB Cuando el MIB recibe la información de que el Agente K podría morir a manos de un alienígena, lo que cambiaría la historia para siempre, el Agente J es enviado a los años 60 para evitarlo. Tercera entrega de la popular saga Men in Black. [video=youtube;iLFfYjBoR7g] NOTA: Para ver los links has click en el servidor que mas te guste Dejame un mensaje si los links se han caido para poderlos resubir inmediantamente.Gracias
  23. Serie de TV (2007-Actualidad). Leonard (Johnny Galecki) y Sheldon (Jim Parsons) son dos "nerds", dos "cerebritos" que comparten piso. Aunque ambos están doctorados en física teórica y son capaces de calcular la probabilidad sobre la existencia de universos paralelos, no tienen ni la menor idea de cómo relacionarse con el resto del mundo, especialmente con las chicas. La serie comienza con la llegada de Penny (Kaley Cuoco), la nueva vecina que se instala en el piso de enfrente. Penny, que habita las antípodas vitales e intelectuales de ambos cerebritos, altera la tranquila vida sentimental de Leonard y resulta un continuo detonador para el desorden obsesivo-compulsivo de Sheldon. Las emisiones de normalidad de Penny también provocan alteraciones sobre el resto de la pandilla: a Wolowitz (Simon Helberg) se le disparan las hormonas cada vez que la ve mientras que Rajesh (Kunal Nayyar) se muestra incapaz de emitir una sola vocal en su presencia... The Big Bang Theory es una sitcom producida y dirigida por Chuck Lorre (creador de "Dos hombres y medio" -Two and a Half Men-) y Bill Prady (productor ejecutivo de "Gilmore Girls") para los estudios Warner Bros. Television. Se emite por la cadena de television CBS en Estados Unidos, donde fue estrenada en septiembre de 2007, y por Warner Channel en Latinoamerica. AÑO: 2012 DURACIÓN: 20 min. PAÍS: Estados Unidos DIRECTOR: Chuck Lorre (Creator), Bill Prady (Creator), Mark Cendrowski GUIÓN: Chuck Lorre, Bill Prady, Steven Molaro, Lee Aronsohn, David Goetsch, Maria Ferrari, Steve Holland, Jim Reynolds MÚSICA: Barenaked Ladies, Joe Fischer FOTOGRAFÍA: Steven V. Silver REPARTO: Johnny Galecki, Jim Parsons, Kaley Cuoco, Simon Helberg, Kunal Nayyar, Melissa Rauch, Carol Ann Susi, Mayim Bialik, Aarti Mann, Sara Gilbert PRODUCTORA: Emitida por la cadena CBS; Warner Bros. Television WEB OFICIAL: http://www.cbs.com/primetime/big_bang_theory/ PREMIOS: 2009: Emmy: 2 Nominaciones: Actor comedia (Parsons), actor invitado (Christine Baranski) 2009: 2 Premios Television Critics Awards: Galardón en comedia, Galardón individual 2010: Emmy: Mejor actor de comedia (Jim Parsons) 2010: People's Choice Award: Premio a la serie de comedia favorita de TV. 2 Nominaciones 2011: Globo de Oro: Mejor actor de serie de comedia o musical (Jim Parsons) 2011: Premios Emmy: 3 nominaciones, incluyendo Mejor serie de comedia GÉNERO: Serie de TV. Comedia | Amistad. Sitcom yEAR..........: 2012 iMDB.uRL......: http://www.imdb.com/title/tt0898266/ aUDiO.........: Dolby Digital 5.1 & 2.0 English ViDEO.........: 3,195Kbs aSPECT.rATiO..: 16:9 SUBTiTLES.....: English, Chinese, French, Korean, Portugues, Espanol, Thai eXTRAS........: None ARCHIVO DE RECUPERACIÓN + 1 SFV DE COMPROBACIÓN DE RAR Añadir el link al Jdownloader o MiPony, y empieza a descargar del host que mas te agrade SERVIDORES DISPONIBLES The Big Bang Theory - Temporada 5 DVD 1 - Ingles Sub.Español By Chamako The Big Bang Theory - Temporada 5 DVD 2 - Ingles Sub.Español By Chamako The Big Bang Theory - Temporada 5 DVD 3 - Ingles Sub.Español By Chamako CONTRASEÑA: chamako (todo minusculas) Si Algun link cae solo enviame un MP con el link del post y lo resubiré
  24. Todas las películas Dragon Ball Full HD Dragon Ball Peliculas - 01 - La Leyenda del dragón Shenlong [ Full HD 1080p ] [ Latino / Castellano / English ] Ficha técnica: Nombre: Dragon Ball: La Leyenda del dragón Shenlong Titulo en Ingles: curse of the blood rubies Audio: Español Latino / Castellano / Japones / English Año:1986 Subtitulos: Español/English Resolución: 1920×1080 Formato:Mkv Tamaño: 1,12 GB Sinopsis: Dragon Ball: La Leyenda del Dragón Shenlong es la 1ª película basada en la serie de manga y anime Dragon Ball estrenada el 20 de diciembre de 1986. Esta película es una versión alternativa de la primera búsqueda de las Dragon Balls en la serie anime, que vuelve a contar el encuentro de Son Goku y Bulma, la primera pelea de Yamcha y Son Goku, así como el enfrentamiento contra el primer villano, que aquí es Gourmet (en el anime era Pilaf). Capturas: Descarga: Link Intercambiables http://freakshare.co...40/bfbd88d.html http://uploaded.to/folder/r7dxkz Dragon Ball Peliculas - 02 - La Princesa Durmiente en el Castillo Embrujado [ Full HD 1080p ] [ Latino / Castellano / English ] Ficha técnica: Nombre: Dragon Ball: La Princesa Durmiente en el Castillo Embrujado Titulos en Ingles: sleeping princess in devil's castle Audio: Español Latino / Castellano / Japones / english Año:1987 Subtitulos: Español/English Resolución: 1920×1080 Formato: Mkv Tamaño: 1,08 GB Sinopsis: La Princesa Durmiente en el Castillo Embrujado es la 2ª película basada en la serie de manga y anime Dragon Ball estrenada el 18 de julio de 1987. Es una continuación directa de La Leyenda del Dragón Shenlong, siendo también una historia alterna a la serie, ubicada en este caso justo antes del entrenamiento del Maestro Roshi. Capturas: Descarga: Link Intercambiables http://freakshare.co...43/8f01ddd.html http://uploaded.to/folder/ucixam Dragon Ball Peliculas - 03 - Una Aventura Mistica [ Full HD 1080p ] [ Latino / Castellano / English ] Ficha técnica: Nombre: Dragon Ball: Una Aventura Mística Titulo en Ingles: Mystical Adventure Audio: Español Latino / Castellano / Japones / English Año:1988 Subtitulos: Español / English Resolución: 1920×1080 Formato: Mkv Tamaño: 1,08 GB Sinopsis: Una Aventura Mistica es la 3ª película basada en la serie de manga y anime Dragon Ball estrenada el 9 de junio de 1988. Es una continuación directa de La Bella Durmiente en el Castillo del Mal, siendo también una historia alterna a la serie, ubicada en este caso justo después del entrenamiento del Maestro Roshi. Cabe destacar que esta película no tiene personajes nuevos, sino que personajes secundarios de la serie aparecen en roles diferentes. Capturas: Descarga: Link Intercambiables http://freakshare.co...51/bc305c5.html http://uploaded.to/folder/hjymfj Dragon Ball Peliculas - 04 - El Camino Hacia el Poder [ Full HD 1080p ] [ Latino / Castellano / English ] Ficha técnica: Nombre: Dragón Ball: El Camino Hacia el Poder Titulos en Ingles: The Path to Power Audio: Español Latino / Castellano / Japones / English Año:1996 Subtitulos: Español / English Resolución: 1920×1080 Formato: Mkv Tamaño: 1,60 GB Sinopsis: El Camino hacia el poder es la 17ª película basada en la serie de manga y anime Dragón Ball, y la 4º de la etapa Dragon Ball, fue estrenada el 2 de marzo de 1996. Fue llamada El camino hacia el más fuerte en España y El camino hacia el poder en México. Se hizo con motivo del 10º aniversario de la serie, y cuenta de una manera diferente y alternativa la Historia de Dragon Ball desde el principio de la serie hasta el fin del Ejército Red Ribbon, con una mejora gráfica. Cabe destacar que realizo con la misma técnica que Dragon Ball GT, e inclusive Goku aparece vestido identico que en esta serie. Capturas: Descarga: Link Intercambiables http://freakshare.co...52/b867cc4.html http://uploaded.to/folder/ueenrp Saludos amigos!.
  25. J y K vuelven a unirse para crear la mejor defensa contra una siniestra seductora que supone el mayor reto de la misión de los Hombre de Negro: proteger la Tierra de la nueva escoria del universo. Han pasado cuatro años desde que los agentes buscadores de extraterrestres evitaran un desastre intergaláctico. Desde entonces, K ha regresado a la comodidad de la vida civil en el servicio postal mientras J continúa su trabajo controlando alienígenas. En una carrera contrareloj, J deberá convencer a K para que se aliste de nuevo en los Hombres de Negro antes de que la Tierra sea destruida. TÍTULO ORIGINAL: Men in Black 2 (MIB 2) (AKA MIIB) OTROS TÍTULOS: MIIB: Hombres de negro II AÑO: 2002 DURACIÓN: 88 min. PAÍS: USA DIRECTOR: Barry Sonnenfeld GUIÓN: Robert Gordon & Barry Fanaro (Cómic: Lowell Cunningham) MÚSICA: Danny Elfman FOTOGRAFÍA: Greg Gardnier REPARTO: Tommy Lee Jones, Will Smith, Rip Torn, Lara Flynn Boyle, Johnny Knoxville, Rosario Dawson, Tony Shalhoub, Patrick Warburton, Jack Kehler, David Cross, Michael Bailey Smith, Doug Jones PRODUCTORA: Columbia Pictures PREMIOS 2002: Nominada a los Premios Razzie: Peor actriz secundaria (Lara Flynn Boyle) GÉNERO: Ciencia ficción. Fantástico. Comedia. Acción | Extraterrestres. Cómic. Marvel Comics. Secuela General Complete name : Chamako-Hombres de Negro II 2002 BRRip 720p Latino-Ingles.avi Format : AVI Format/Info : Audio Video Interleave Format profile : OpenDML File size : 3.14 GiB Duration : 1h 28mn Overall bit rate : 5 095 Kbps Movie name : Hombres de Negro II 2002 BRRip 720p Latino Director : Chamako Genre : Ciencia Ficción Recorded date : 25-05-2012 Writing application : VirtualDubMod 1.5.10.2 (build 2542/release) Writing library : VirtualDubMod build 2542/release Copyright : Chamako Video ID : 0 Format : MPEG-4 Visual Format profile : Advanced [email protected] Format settings, BVOP : 2 Format settings, QPel : No Format settings, GMC : No warppoints Format settings, Matrix : Default (MPEG) Codec ID : XVID Codec ID/Hint : XviD Duration : 1h 28mn Bit rate : 3 799 Kbps Width : 1 280 pixels Height : 688 pixels Display aspect ratio : 1.85:1 Frame rate : 23.976 fps Color space : YUV Chroma subsampling : 4:2:0 Bit depth : 8 bits Scan type : Progressive Compression mode : Lossy Bits/(Pixel*Frame) : 0.180 Stream size : 2.34 GiB (75%) Writing library : XviD 1.2.1 (UTC 2008-12-04) Audio #1 ID : 1 Format : AC-3 Format/Info : Audio Coding 3 Mode extension : CM (complete main) Format settings, Endianness : Big Codec ID : 2000 Duration : 1h 28mn Bit rate mode : Constant Bit rate : 640 Kbps Channel(s) : 6 channels Channel positions : Front: L C R, Side: L R, LFE Sampling rate : 48.0 KHz Bit depth : 16 bits Compression mode : Lossy Stream size : 403 MiB (13%) Alignment : Split accross interleaves Interleave, duration : 42 ms (1.00 video frame) Interleave, preload duration : 500 ms Audio #2 ID : 2 Format : AC-3 Format/Info : Audio Coding 3 Mode extension : CM (complete main) Format settings, Endianness : Big Codec ID : 2000 Duration : 1h 28mn Bit rate mode : Constant Bit rate : 640 Kbps Channel(s) : 6 channels Channel positions : Front: L C R, Side: L R, LFE Sampling rate : 48.0 KHz Bit depth : 16 bits Compression mode : Lossy Stream size : 403 MiB (13%) Alignment : Split accross interleaves Interleave, duration : 42 ms (1.00 video frame) Interleave, preload duration : 500 ms ARCHIVO DE RECUPERACIÓN + 1 SFV DE COMPROBACIÓN DE RAR SERVIDORES DISPONIBLES http://www.mypaste.info/fSpuPWii CONTRASEÑA: chamako (todo minusculas) Si Algun link cae solo enviame un MP con el link del post y lo resubiré
×
×
  • Create New...