Jump to content

Search the Community

Showing results for tags 'Gratis'.

  • Search By Tags

    Type tags separated by commas.
  • Search By Author

Content Type


Forums

  • Zona Comunidad (Contacto, Preguntas, Avisos, Novedades)
    • Comunicados Chilecomparte
    • Reglas Chilecomparte
    • Sugerencias y Contacto con la Administración
  • Zona de Conversación (Amor, Sexualidad, Cultura, Tecnología, Fútbol)
    • Amores, Relaciones & Sexualidad
    • Artes Culinarias, Gastronomía & Datos de Cocina
    • CineAdictos y TvManiacos (Conversación)
    • Ciencias Ocultas , Enigmas & Casos Paranormales
    • Chile Zoo
    • ChileComparte Wrestling Federation
    • Debates
    • Deportes y Actividades Físicas
    • Ingeniería y Tecnología (Conversación)
    • Ecología & Medio Ambiente
    • Religión
    • Todo Tuercas y Motores
    • Vida, Familia, Salud y Conciencia
    • Temas en general
  • Zona de Ocio (Vídeos Youtube, Humor, Chistes, Relax, Risa, Chistoso, Cómico)
    • Relax
    • Lujuria Femenina
    • Humor & Videos Varios
  • Zona Académica (Artes, Ciencias, Filosofía, Historia, Matemáticas, Estudiantes)
    • Artes Gráficas & Visuales
    • Filosofía
    • Historia y Ciencias Sociales
    • Rincón del Estudiante
  • Zona Geek (Noticias, Manuales, Soporte, Hardware, Software, Webmaster)
    • Informática: Noticias, Manuales, Trucos & Reviews
    • Soporte PC: Hardware & Software
    • TI - Programacion & Webmasters
    • Hardware, Modding & Overcloking
    • Receptores Satelitales y Accesorios
    • Telecomunicaciones, Internet & Redes
    • Electricidad & Electrónica
  • Zona Micro$oft (Software, Programas, Juegos, Noticias, Información)
    • Appz
    • P2p & P2m
  • Zona de Animé (Películas, Música, Revistas, Información, Conversación)
    • Animeadictos (No Descargas)
    • Mangas
    • Moviez & Series
    • Música de Anime & J-Music
  • Zona E-Books y Literatura (Libros Online, Cuentos Infantiles, PDF)
    • Literatura (Conversación)
    • Literatura Infantil & Autodidaccia
    • Literatura Contemporánea, Técnica y Científica
    • Literatura Clásica, Medieval & Moderna
    • Comics, Historietas y Novelas Gráficas
    • Cs. Sociales, Filosofía y Humanidades
    • Revistaz
    • Cursos Multimedia & VideoTutorialez
    • Literatura Gastronomica y Artes Culinarias
    • Literatura Chile Zoo
  • Zona Audiovisual (Películas, Conciertos, Series, Documentales, Subtítulos)
    • Series de TV
    • Documentales
    • Moviez
  • Zona Gamer (PC, Playstation, Xbox, Wii, Nintendo, Noticias, Trucos)
    • Juegos (Conversación)
    • Gamez PC
    • Consolaz
  • Zona Musical (Mp3s, Canciones, Noticias, Grupos, Partituras, Tocatas)
    • Música, Bandas & Músicos (Conversación)
    • Mp3z
    • Videos & Conciertos
  • Zona Telefonía, Smartphones & Tablets (Iphone, Ipad, Android, iOS)
    • Noticias, Informaciones & Temas Generales
    • Rincón Android
    • Rincón iPhone / iPad / iPod (touch, classic, nano, shuffle, video)
  • Zona GNU/Linux Open Source (Software, Juegos, Noticias, Información)
    • Aportes varios, Manuales y Minicómos
    • Debian-Ubuntu
    • RedHat-Suse
  • Zona Apple (Software, Juegos, Noticias, Iphone, Ipad, Ipod, Mac)
    • Noticias, Informaciones, Tutoriales & Guías
    • Soporte Mac
    • Mac Appz
    • Mac Gamez
  • Información Adicional
  • Informaciones, Noticias & Temas Generales
  • Soporte
  • Aplicaciones
  • Papelera
  • Tutoriales

Find results in...

Find results that contain...


Date Created

  • Start

    End


Last Updated

  • Start

    End


Filter by number of...

Joined

  • Start

    End


Group


AIM


MSN


Website URL


ICQ


Yahoo


Jabber


Skype


Lugar


Intereses

  1. Hard Disk Sentinel Professional v6.01 Build 12540 Hard Disk Sentinel Professional v6.01 Build 12540 | Exe | + Portable |Multilenguaje (Español) | Medicina Incl. | Comprimido: Si | Rar | 70.2 MB Aplicación de monitoreo unidad multi-OS. Su objetivo es encontrar, probar, diagnosticar y reparar problemas de la unidad de disco duro, mostrar el estado del disco duro, degradaciones de rendimiento y fallos. Hard Disk Sentinel da descripción textual completa, consejos y pantallas / informes de la información más completa acerca de la unidad de disco duro en el ordenador o en unidades externas (USB / e-SATA). Muchas alertas diferentes y opciones de informe están disponibles para garantizar la máxima seguridad de sus datos valiosos. Hard Disk Sentinel supervisa el estado del disco duro, incluyendo la salud, la temperatura (Self-Monitoring, Análisis y Tecnología de Información, integrado en la mayoría de los discos duros de hoy) Los valores para cada disco duro. También mide la velocidad de transferencia de disco duro en tiempo real que se puede utilizar como punto de referencia o para detectar posibles fallos de disco duro, el rendimiento. Hard Disk Sentinel puede ser utilizado con eficacia para evitar daños graves o la pérdida de datos. De esta manera, incluso un pequeño problema no será una perdida pérdida de datos o el fracaso se puede predecir. Esto le da la oportunidad de realizar una copia de seguridad de sus datos más importantes y valiosos. La versión Profesional tiene opciones de copia de seguridad automática (en problemas) para evitar la pérdida de datos causada por no solo fracaso, sino por el malware o borrado accidental, también. Características: Fácil de usar interfaz Instantánea S.M.A.R.T. análisis Estado del disco en el Explorador de Windows La información sobre la demanda Detalles del disco duro Rendimiento del disco duro Particiones de disco duro Cerrar Gestión Acústica La sincronización del reloj Descargar desde UPLOADED - RAPIDGATOR - SEND - UP-4EVER https://justpaste.it/9mtwr Para descomprimir el archivo debes usar el Winrar v6.11 https://justpaste.it/9lq47 Si los enlaces están muertos solo avísame respondiendo en el tema y lo soluciono. Siempre estoy suscrito a mis aportes.
  2. Mipony Pro v3.2.2 Mipony Pro v3.2.2 | Exe | +Portable | Multilenguaje (Español) | Medicina Incl. | Comprimido: Si | Rar | 38.43 MB Mipony Pro es una potente aplicación de gestión de descargas que le permite descargar archivos desde archivos de alojamiento como Mediafire, Rapidgator, Uploaded, Nitroflare y muchos más. El programa le brinda una manera fácil y rápida de descargar archivos de casi todos los sitios web de alojamiento de archivos populares. Mipony detecta y procesa automáticamente los enlaces de descarga, puede pausar y reanudar sus descargas y administrar totalmente las descargas y organizarlas con facilidad. Mipony Pro agrega automáticamente los enlaces detectados desde el Portapapeles de Windows. También puede almacenar la información de inicio de sesión, puede manejar múltiples descargas simultáneamente, puede optimizar y ajustar la velocidad de descarga y más. Además, el programa también se puede ampliar con Captcha Trader Plugin, por lo que el programa puede omitir fácilmente algún sistema de captcha, así como ingresar captcha manualmente para un sistema de captcha fuerte. Características clave: Supervise el portapapeles y agregue enlaces automáticamente. Muy intuitivo con interfaz de arrastrar y soltar (UI). Posibilidad de dar prioridad a los archivos, y más. Archivos de control que se pueden descargar simultáneamente. Tiene opción para unir los archivos descargados (HJSplit). Realizar los intentos de descarga automáticamente. Gestiona, visualiza las descargas y manipúlalas. Soporta Rapidgator, cargado, nitroflare. Y mucho más. Lista de cambios: Mejorada de la velocidad de descarga de Youtube. Añadido soporte para enviar.cm Actualizado Takefile.link Actualizado Filespace.com Actualizado mega.nz Mejoradas las descargas de bittorrent. Solucionado que algunos rastreadores de bittorrent no funcionaban. Solucionados problemas con archivos o rutas con nombres largos. Ahora es posible eliminar carpetas en el historial de carpetas de descarga. Solucionados errores de visualización con el panel de torrents en pantallas HDPI. Visualización mejorada con el tema negro. El instalador se ve mejor en pantallas HDPI. No se ejecuta Mipony como administrador después de la instalación. Actualizada la traducción al japonés (gracias a Tilt). Actualizada la traducción al italiano (Gracias a tfr). Requisitos de Sistema: Está disponible para equipos con sistemas operativo Windows. Descargar desde UPLOADED - RAPIDGATOR - SEND - UP-4EVER https://justpaste.it/316y3 Para descomprimir el archivo debes usar el Winrar v6.11 https://justpaste.it/9lq47 Si los enlaces están muertos solo avísame respondiendo en el tema y lo soluciono. Siempre estoy suscrito a mis aportes.
  3. MAGIX VEGAS Pro 19 v19.0.0 Build 550 MAGIX VEGAS Pro 19 v19.0.0 Build 550 | Exe | Multilenguaje (Español) | Medicina Incl. | Comprimido: Si | Rar | 747.19 MB MAGIX VEGAS Pro (anteriormente conocido como SONY VEGAS Pro) es un editor no lineal (NLE) profesional para editar video y audio multipista. El programa está diseñado para la grabación y mezcla de audio multicanal, así como sus características principales para la postproducción de video. Con todas sus ventajas, podrás crear fácilmente videos de calidad profesional (resoluciones de hasta 4k) y formatos de audio de alta calidad. VEGAS Pro está diseñado para todas las necesidades y todos los niveles de habilidad, cuenta con edición de audio y video multipista en tiempo real en pistas ilimitadas, potente secuenciación de video, compatibilidad con efectos de plug-in VST y DirectX, muchos efectos y herramientas de composición, así como otros poderosas herramientas de edición de video. La versión completa de MAGIX VEGAS Pro viene con algunas funciones de edición nuevas y útiles, una variedad de efectos de video, complementos optimizados para el flujo de trabajo, estabilización de imagen potente, nuevo soporte para trabajar con videos de alta velocidad de cuadros (HFR) y más. Como hemos visto, este programa se desarrolló anteriormente como un editor de audio, es por esto que ofrece un procesamiento de audio muy completo en comparación con algún software similar. Además, este programa también cuenta con una versión más completa y potente que las versiones anteriores, ya que ofrece todas las herramientas necesarias para crear un proyecto complementario de principio a fin. Innovadoras herramientas de edición: Editar material SD, HD, 2K, 4K y en 2D o 3D estereoscópico, con la funcionalidad de arrastrar y soltar o modos de edición de 3 puntos y 4 puntos tradicionales. La interfaz de Vegas Pro 13 ofrece una impresionante variedad de herramientas innovadoras y detalles bien pensados, con un espacio de trabajo totalmente personalizable para ajustarse a una amplia gama de tareas de producción. Vegas Pro proyectos dentro de la línea de tiempo, personalizar y guardar comandos del teclado y utilizar secuencias de comandos de aplicaciones para automatizar tareas repetitivas. Efectos de gran alcance y motores de composición: Combine hasta 32 de alta calidad y efectos de fotogramas clave por cadena de efectos y aplicarlos a nivel de evento, la pista, los medios de comunicación, o el proyecto. Vegas Pro 13 utiliza una arquitectura plug-in avanzado basado en el estándar OpenFX para asegurar la compatibilidad con cientos de efectos de última generación diseñadas por los principales efectos de vídeo desarrolladores VFX. Pistas padre / hijo y los modos 2D y 3D proporcionan un entorno de composición poderosa, flexible y sofisticado. Forma herramientas de enmascaramiento y FX Masking, hacer paneo, recorte y tratamientos de los efectos específicos fácilmente. El plug-in de color junto con una amplia gama de otras herramientas de corrección de color le permiten asociar rápidamente las características de color de un clip a otro. Intercambio de proyectos: Importación y exportación de una amplia gama de archivos de proyecto desde y hacia Vegas Pro 13. Intercambio de proyectos puede convertir entre archivos. AAF de Avid ProTools, XML para Apple, Final Cut Pro 7, Final Cut Pro X (sólo exportación ), DaVinci Resolve 10, y. prproj para Adobe Premiere Pro y After Effects CC CC. Características clave: Herramientas de creación de discos DVD y Blu-ray. Soporte de archivos HEVC y formato nativo. Soporte de alto DPI y soporte HFR. Estabilización de imagen con Mercalli. Flujo de trabajo intuitivo con arrastrar y soltar. Herramientas inteligentes de edición de audio y video. Soporta todo el material de audio y video.. Cree animaciones y superposiciones personalizadas. Titler Pro Express de NewBlueFX. Interfaz de usuario moderna y eficiente. Plug-in OFX para imagen en imagen con controles en tiempo real sobre el vídeo. Ventana de vista previa. Plug-in OFX para recorte con controles en tiempo real en la ventana de vista previa de vídeo. Aceleración por hardware potente gracias a Intel QSV y a la unidad de procesamiento gráfico. Plug-in OFX para tablas de consulta. Potentes filtros y efectos de vídeo. Tratamiento del color avanzado. Compatibilidad ACES 1.0. Sincronización de audio para archivos multicámara. Congelación de fotogramas de vídeo instantánea. Y mucho más. Requisitos del sistema: Windows [7/ 8/ 8.1/]* 10/ 11 (64-bit only - All editions) Procesador: Procesador a 2 GHz (se recomienda una CPU de varios núcleos o procesadores para HD o 3D estereoscópico, se recomiendan 8 núcleos para 4K). Memoria RAM: 4 GB de memoria RAM (se recomiendan 8 GB, 16 GB para 4K). Tarjeta gráfica: 512 MB de memoria GPU, compatible con NVIDIA, AMD o Intel GPU (ver indicaciones más abajo). Espacio libre en disco: 1.5 GB necesarios para la instalación del programa. Para archivos en formato 4k, unidad de estado sólido (SSD) o sistemas de alta velocidad multi-disk RAID Descargar desde UPLOADED - RAPIDGATOR - SEND - UP-4EVER https://justpaste.it/7os6o Para descomprimir el archivo debes usar el Winrar v6.11 https://justpaste.it/9lq47 Si los enlaces están muertos solo avísame respondiendo en el tema y lo soluciono. Siempre estoy suscrito a mis aportes.
  4. GOM Player Plus v2.3.59.5323 v2.3.59.5323 | Exe |32 & 64 Bits | Multilenguaje (Español) | Medicina Incl. | Comprimido: Si | 52.85 MB GOM Player Plus es un reproductor multimedia multiusos que admite la mayoría de formatos de audio y video, compatibilidad con realidad virtual de 360 ??grados y muchas otras funciones avanzadas. Este software sigue siendo uno de los reproductores multimedia más potentes y accesibles. GOM Player Plus es un completo software de reproducción de medios que ofrece muchas funciones avanzadas, pero está equipado con una interfaz simple y muy fácil de usar. Además, el buscador de códecs asegura que cualquier formato de audio y video se pueda manejar con la aplicación. GOM Player Plus es una versión mejorada de GOM Player con una experiencia de usuario avanzada y una velocidad más rápida. Fue construido específicamente para computadoras x64, el reproductor de video viene con soporte para varios formatos de archivo, que van desde formatos populares como AVI, MP4, FLV, WMW, MKV, MOV y muchos otros, con soporte de alta resolución de video y puede reproducir 360 grados de video VR. Caracteristicas claves: Mucho más rápido y estable que GOM Player Free. Reproducir video de 360 ??grados VR de alta resolución de video. Visor lateral de múltiples ángulos y transición de pantalla. Reproduce todos los formatos de audio / video más populares. Elegante y enfocado en la experiencia de visualización de videos. Ajustar la configuración de ubicación, tamaño y sincronización. Repetición A-B, captura de pantalla y captura de medios. Códec, control de velocidad de reproducción y efectos de video. Mejora de rendimiento rápida significativo. Y mucho más. Requisitos de Sistema: Windows 7/8 / 8.1 / 10 (32 bits o 64 bits, todas las ediciones) Procesador de 1 GHz o más rápido. 2 GB de memoria RAM. 200 MB de espacio libre en el disco duro. Cambios en esta versión: [Mejora de la función] Interfaz de usuario mejorada de la configuración de métodos abreviados de teclado. [VOC y correcciones de errores] Se mejoró el problema de la imagen secundaria en la opción Escala de DPI. Se solucionó el problema de enfoque en la opción Escala de DPI. (Entorno de uso de RTX Voice). Se corrigió el error que ocurría al mostrar subtítulos incrustados. Descargar desde UPLOADED - RAPIDGATOR - SEND - UP-4EVER https://justpaste.it/7u919 Para descomprimir el archivo debes usar el Winrar v6.11 https://justpaste.it/9lq47 Si los enlaces están muertos solo avísame respondiendo en el tema y lo soluciono. Siempre estoy suscrito a mis aportes.
  5. DVDFab 12 v12.0.6.9 DVDFab 12 v12.0.6.9 | Exe | 32 & 64 Bits | Multilenguaje (Español) | Medicina Incl. | Comprimido: Si | Rar | 191.81 MB (32 Bits) - 215.21 MB (64 Bits) DVDFab es el paquete de software todo en uno para copiar Blu-ray / DVD y convertir el archivo de vídeo. El disco resultante es un perfecto clon del DVD original. Consta de varias opciones de función. La opción DVD a DVD es el software más potente y flexible de copiador/grabador de DVD. Con 8 modos de copia, puedes guardar cualquier DVD a DVDR o a la unidad de disco duro en sólo uno o unos pocos clics. La opción DVD a móvil convierte el título del DVD a archivos AVI/MP4/WMV/MKV que se pueden reproducir en dispositivos móviles como iPod, PSP, ZUNE, teléfono celular, etc. La opción Blu-ray a Blu-ray es el primer software completo de copiar/grabar Blu-ray. Con 4 modos de copia, puedes hacer copias de seguridad a disco Blu-ray BD-R o a la unidad de disco duro en sólo uno o unos pocos clics. La opción Blu-ray a móvil convierte a título de Blu-ray a archivos MKV/MP4/AVI/WMV que pueden reproducirse en la consola de próxima generación como PS3 y Xbox 360, o dispositivos móviles como iPod, PSP, ZUNE, teléfono celular, etc. La opción Archivo a móvil convierte el archivo de vídeo de origen de tu PC a la consola de próxima generación como PS3 y Xbox 360, o dispositivos móviles como iPod, PSP, Zune, teléfono celular, etc. La opción Herramienta de transferencia de archivos transfiere los archivos convertidos a dispositivos móviles como iPod, PSP, Zune, etc. Características: Disponibles 8 modos de copia DVD Copy: Disco Completo, Película Principal, Dividir, Personalizar, División Personalizada, Clonar, Fusionar, Escribir Datos. Disco Completo: Se copian todas las películas, menús y trailers a un DVD con solo un clic. Película Principal: Copie la película con el audio y subtitulo especificado. Dividir: Copie un DVD-9 en dos DVD-5 manteniendo la calidad al 100% y conservando los menús originales en ambos discos. Ideal para episodios/temporadas de series de Televisión, películas, etc. Personalizar: ¡Personalice sus DVDs! ¿Quiere hacer un DVD con sus títulos favoritos?, ¿Qué le parece eliminar esos molestos anuncios? ¿O seleccionar un audio y subtítulos específicos? ¡No hay problema! Puede elegir sus títulos favoritos, el orden de reproducción, incluir o no los menús originales, ¡para crear un DVD con lo que usted quiera! División Personalizada: Copie un DVD-9 en dos DVD-5, usando el modo Personalizado. Ideal para DVDs de episodios/temporadas de series. Clonar: Haga una copia exacta, 1:1, bit a bit de DVDs:Haga una copia perfecta de un DVD de doble capa, usando el punto de división de capas original. Copie un DVD de datos, como los DVD de PS2. Escribir Datos: Grabe un directorio existente o una imagen ISO de un DVD a DVD, o convierta un directorio DVD en una imagen ISO. Grabe en cualquier DVD virgen (DVD+R/RW, DVD-R/RW, DVD+R DL, DVD-R DL). Actualizado constantemente para dar soporte a las nuevas grabadoras y discos vírgenes de DVD Fusionar: Combine diferentes títulos de diferentes orígenes en un solo DVD: Combine dos DVD-9 como El Señor de Los Anillos en un DVD-9. Fusione temporadas de series en menos discos. Cree su propio disco de características especiales. Beneficios: Elimine todas las protecciones anticopia del DVD, como CSS, CPPM, RC, RCE, APS, UOPs, ARccOS, RipGuard, FluxDVD, CORE X2, etc. Actualizado constantemente para dar soporte para las nuevas protecciones anticopia de DVDs. Comprima DVD-9 a DVD-5. Velocidad de grabación muy rápida, alrededor de 10-20 minutos. Copia de seguridad de discos rayados o sucios: Incluso si alguna información (IFO) no puede ser leída, usted aun puede usar los modos Película Principal o Personalizar. Recuperación del error de lectura (VOB) de DVD. Soporta DVD NTSC y PAL. Previsualiza películas como un reproductor de DVD real. Requisitos de sistema: Windows 10/8.1/8/7/Vista/XP(32/64-bit) Pentium II 500 MHz 256 MB of RAM 10 GB of Free Hard Disk Space A DVD-R(W) or DVD+R(W) Drive Descargar desde UPLOADED - RAPIDGATOR - SEND - UP-4EVER https://justpaste.it/9n5dy Para descomprimir el archivo debes usar el Winrar v6.11 https://justpaste.it/9lq47 Si los enlaces están muertos solo avísame respondiendo en el tema y lo soluciono. Siempre estoy suscrito a mis aportes.
  6. Microsoft Toolkit v2.7.3 Microsoft Toolkit v2.7.3 | Exe | Inglés | Windows 8/8.1/10/11/2008/2012 Office 2003/2007/2010/2013/2016/2021 | Comprimido: Si | Rar | 12.92 MB Este es un conjunto de herramientas y funciones para la gestión de las licencias, la implementación y la activación de Microsoft Office y Windows. Todas las salidas de estas funciones se muestra en la consola de la Información. Todas las funciones se ejecutan en segundo plano y la interfaz gráfica está deshabilitado para evitar la ejecución de múltiples funciones, ya que podrían entrar en conflicto o causar daños si se ejecutan simultáneamente. Las funciones de personalización de instalación de Microsoft Office (Personalizar Pestaña de configuración), AutoKMS desinstalador (si está instalado AutoKMS), AutoRearm desinstalador (si está instalado AutoRearm), Oficina Uninstaller y Product Key Checker funcionan incluso si Microsoft Office o de Windows no está instalado / compatibles. Una gran ventaja de este activador, es que ya se puede aplicar a Windows 8.1 sin problema alguno. Y algo impresionante que en lo personal me ha gustado mucho, es que con este puedes activar la muy difícil de lograr para Windows 7 Enterprise x64. Características clave: Renovar automáticamente la activación de KMS de 180 días. Comprobar, instalar o eliminar la clave de producto instalada. Crear una copia de seguridad de la licencia o restaurar la activación. Funciones de personalización de la configuración de Microsoft Office. Rearmar y desinstalar microsoft Office por completo. Admite 32 bits (x86), 64 bits (x64) o (x86-64). Soporte para Microsoft Office 2010 o superior. Soporta Windows Vista o por encima de todas las ediciones. Súper simple, intuitivo y muy fácil de usar. Y mucho más. Requisitos de sistema: Microsoft. NET Framework 4.0 o 4.5 (no 3.5) Microsoft Office 2010 o posterior para el Apoyo Toolkit Oficina Windows Vista o posterior para soporte técnico de Windows Toolkit Cambios en la versión v2.6.2: Agregada Key para Windows Server 2016 Acure Core Corregido ivalida Generación KMS PID sobre Windows 10/Server 2016 Actualizado Driver WinDivert Descargar desde UPLOADED - RAPIDGATOR - SEND - UP-4EVER https://justpaste.it/8gwc3 Para descomprimir el archivo debes usar el Winrar v6.11 https://justpaste.it/9lq47 Si los enlaces están muertos solo avísame respondiendo en el tema y lo soluciono. Siempre estoy suscrito a mis aportes.
  7. SolidWorks Premium 2021 SP5.1 SolidWorks Premium 2021 SP5.1 | Exe | Multilenguaje (Español) | Medicina Incl. | Comprimido: Si | Rar | 8 Partes ( 2 GB) | 14.3 GB SolidWorks le brinda opciones de software de CAD en 3D, simulación de diseño y administración de datos de productos, además de software de documentación de productos. No importa el tamaño de su empresa: siempre puede tener las herramientas precisas que necesita para diseñar mejores productos. Software de CAD en 3D El software de diseño en 3D de SolidWorks lo ayuda a diseñar mejores productos, más rápido. Cuando tenga una idea para un producto excelente, contará con las herramientas para diseñarlo en menos tiempo y a un costo más bajo. Estas son algunas de las funciones incluidas: Simulación de diseño Con las eficaces herramientas de simulación de diseño de SolidWorks, fácilmente puede someter sus diseños a las mismas condiciones en las que se verán en el mundo real. Mejore la calidad de sus productos al mismo tiempo que reduce los costos de prototipos interactivos y pruebas. Administración de datos de productos Con SolidWorks Enterprise PDM (Product Data Management), los equipos de diseño distribuidos pueden administrar los datos de los productos, compartir la información de los diseños, automatizar el flujo de trabajo y mejorar la colaboración entre los departamentos de ingeniería y fabricación. Software de documentación de productos 3DVIA 3DVIA Composer usa información de sus modelos en 3D para incorporar modificaciones de diseño de forma perfecta directamente en la documentación del producto, para crear materiales actualizados, interactivos e impresos con precisión. Ventajas: La facilidad de uso le permite ser productivo con mayor rapidez La interfaz intuitiva facilita el acceso a la potente funcionalidad Vistas y presentaciones precisas de detalles en 3D Disminución del tiempo de diseño y desarrollo del producto Eliminación de errores por interpretación de planos Comunique los diseños fácilmente durante el proceso de diseño. Herramientas intuitivas para construir modelos en 3D a partir de sus datos de AutoCAD Herramientas de productividad gratuitas para usuarios que vienen de usar 2D. Gracias a SolidWorks eDrawings, los conceptos de diseño pueden intercambiarse fácilmente con vendedores externos, proveedores, clientes y demás usuarios de CAD Se simplifican la verificación y el análisis del diseño. El análisis constante es parte del proceso de diseño del software de CAD SolidWorks. Rendimiento con grandes ensamblajes Algunas mejoras en SolidWorks Premium 2021: Mejoras para agregar anotaciones de taladro, editar cotas y anotaciones y agregar vistas de detalle, rotura y recorte. Exportar informes de detección de interferencias con imágenes a Microsoft Excel. Mejoras de las tablas de diseño, las vistas explosionadas, las relaciones de posición y las operaciones de simetría y matriz. Abrir, guardar y cerrar ensamblajes con importantes mejoras de rendimiento. Opción para elegir colores para apariencias de aplicaciones externas. Utilizar splines, líneas u otras entidades de croquis para enrutar mazos en 3D. Utilizar varios alambres o cables para organizarlos y pasarlos a a través de abrazaderas. Actualizar las unidades de ingeniería paa almbres, cables y datos de mazos de cables eléctricos mediante Routing Library Manager (RLM). Ajustar flujos de trabajo completos de esquemas a 3D para cables sin terminaciones finales. Utilizar Microsoft Excel para la automatización del diseño eléctrico con un complemento para agilizar el proceso. Publicar tablas de pliegue de chapa metálica como archivos PDF en 3D. Requisitos de sistema: Windows 10, 11 (64 bits). CPU de doble núcleo. Recomendación: Quad core. RAM de 8 GB. Recomendación: 16 GB. 2 GB de espacio libre en el disco. Recomendación: 5 GB. 2 GB o más de RAM de GPU. Recomendación: 4 GB. Conexión de HDR Light Studio: HDR Light Studio v5.3.3 o superior, excepto v5.4. Se necesita un mínimo de 4 GB de memoria de vídeo para poder utilizar la función Denoiser. Para compatibilidad con NVIDIA iRay GPU. Tarjeta gráfica NVIDIA: NVIDIA Quadro/NVIDIA GeForce/Tesla con chip NVIDIA Maxwell como mínimo; se recomienda una configuración de doble GPU con tarjetas NVIDIA Maxwell como mínimo para disfrutar de una mejor experiencia. Se necesita un controlador NVIDIA compatible con CUDA® 11.0 o superior. Recomendación: Versión del controlador NVIDIA 451.48 (o superior). Para compatibilidad con AMD ProRender GPU. Recomendación: Tarjetas de estación de trabajo serie Radeon o FirePro. Descargar desde UPLOADED - RAPIDGATOR - SEND - UP-4EVER https://justpaste.it/6m6ul Para descomprimir el archivo debes usar el Winrar v6.11 https://justpaste.it/9lq47 Si los enlaces están muertos solo avísame respondiendo en el tema y lo soluciono. Siempre estoy suscrito a mis aportes.
  8. Microsoft Office Professional Plus 2016 v16.0.5305.1000 VL Microsoft Office Professional Plus 2016 v16.0.5305.1000 VL | ISO | 64 Bits | Español - ARABIC, BRAZILIAN, CROATIAN,DANISH, DUTCH, ENGLISH, FINNISH, FRENCH, GERMAN, GREEK, HUNGARIAN, ITALIAN, LATVIAN, NORWEGIAN, POLISH, PORTUGUESE, RUSSIAN, SLOVENIAN, SWEDISH, TURKISH, UKRANIAN | Medicina Incl. | Comprimido: Si | Rar | 3.69 GB Microsoft Office 2016 es la solución completa multiplataforma, entre dispositivos para el lugar de trabajo moderno, con herramientas inteligentes para los individuos, equipos y empresas. Puede abrir las aplicaciones, documentos en cualquier lugar, a través de múltiples dispositivos. Trabaja con las aplicaciones instaladas que usted conoce y confía: Word, Excel, PowerPoint, OneNote, Outlook, Publisher, Access. Tenga siempre las últimas versiones de Word, Excel, PowerPoint, OneNote, Outlook, Publisher y Access y capturar sus ideas, sin embargo usted puede trabajar con un teclado, pluma, o la pantalla táctil. Microsoft Office 2016 ofrecerá nuevas medidas de seguridad, el cumplimiento y características de implementación, dando a las organizaciones más control sobre los datos sensibles. También se han añadido nuevas aplicaciones a la familia de la oficina con Sway y Lens Oficina. Todo diseñado para mantener el movimiento de su trabajo, en todas partes. Microsoft Office 2016 suite incluye aplicaciones como Word, Excel, PowerPoint y Outlook. Office 2007, Office 2010, Office 365, u Office 2013 los usuarios pueden abrir documentos creados sin ninguna acción adicional. Los clientes que utilizan versiones anteriores de Office pueden descargar e instalar un paquete de compatibilidad. Nuevo en Microsoft Office 2016: Sus documentos, en cualquier lugar: Office 2016, es más fácil utilizar el poder de las aplicaciones ricas en funcionalidades para crear, abrir, editar y guardar archivos en la nube desde el escritorio, para que puedas acceder a ellos desde cualquier lugar y en cualquier dispositivo. Además, los nuevos accesorios modernos en Outlook hacen que sea fácil para adjuntar archivos desde onedrive y automáticamente configurar el permiso para que los destinatarios. Todo lo que es más fácil de compartir y colaborar en su trabajo con otros. Colaboración: En tiempo real co-autoría está disponible en la Oficina Virtual de aplicaciones de hoy y estamos trayendo esa experiencia para las aplicaciones de escritorio de Windows. Cuando usted y su equipo está trabajando en Word 2016 y / o Office en línea, usted será capaz de ver donde otros editores están trabajando y lo que están escribiendo, todo en tiempo real. Aplicaciones inteligentes: Aplicaciones aprenderán a medida que trabaja, aprovechando señales sutiles y pistas para ayudarle a mantenerse la tarea y sacar más provecho de Office. Una nueva herramienta de búsqueda disponible en Word, PowerPoint y Excel, sirve los comandos que necesita con sólo escribir lo que quieres hacer. Una nueva característica de Exchange, utiliza aprendizaje automático para analizar sus patrones de correo electrónico y de tu bandeja de entrada moviendo mensajes de menor prioridad de su camino y en una nueva carpeta Clutter. Y puntos de vista, impulsado por Bing, usted encuentra información contextual de la web dentro de la experiencia de lectura. Análisis de los datos hace más rápido y más fácil: Nuevas capacidades de análisis están integradas en Excel, para que pueda tirar, mapa, analizar y visualizar los datos más rápido y más fácil que nunca. Previsión de un solo clic. Crear previsiones en su serie de datos con un solo clic a las tendencias futuras. Los datos intuitivos conexión y la configuración de las capacidades. Con integrada de energía de consultas, utilice Excel como su análisis de espacio de trabajo personal por la conexión y visualización de todos los datos que te rodea. Disfruta de una amplia gama de fuentes de datos, incluyendo tablas de las páginas web, los datos corporativos como SAP Business Objects, las fuentes no estructuradas como Hadoop, y servicios como Salesforce. Después de traer todos sus datos en un solo lugar, la forma rápida y combinar para satisfacer sus necesidades empresariales únicas y llegar a un análisis en cuestión de segundos. Modelado de datos y análisis de gran alcance. Con la mejora de las características dinámicas de energía como parte de Excel, asignar diferentes conjuntos de datos con facilidad de arrastrar y soltar para crear modelos de datos a fin de darles una visión más amplia de su negocio. Disfruta de funciones de análisis intuitivos, agrupación automática de la hora y otras características que mejoran su experiencia de análisis de tablas y gráficos dinámicos. Ahora, con la capacidad de calcular 100s de millones de filas de datos, realizar análisis más profundo con alta velocidad. Publicar en Microsoft Power BI Vista previa. Sin esfuerzo publicar y compartir sus libros de Excel para los usuarios de la energía de BI. Nuevas tablas y gráficos modernos, incluyendo TreeMap, Sunburst, Cascada, cajas y bigotes y de histograma y Pareto en Excel ayuda a presentar sus datos de una manera fresca. Paquete incluye: Microsoft Access 2016 Microsoft Excel 2016 Microsoft InfoPath 2016 Microsoft onedrive para los negocios 2016 Microsoft OneNote 2016 Microsoft Outlook 2016 Microsoft PowerPoint 2016 Microsoft Publisher 2016 Skype para los negocios 2016 Microsoft Word 2016 Microsoft Visio 2016 Microsoft Project 2016 Descargar desde UPLOADED - RAPIDGATOR - SEND - UP-4EVER https://justpaste.it/5zfma Para descomprimir el archivo debes usar el Winrar v6.11 https://justpaste.it/9lq47 Si los enlaces están muertos solo avísame respondiendo en el tema y lo soluciono. Siempre estoy suscrito a mis aportes.
  9. 3 Idiots Hindi Original | Año: 2009 | BRRip 1080p | MKV | AC3 5.1 | Audios: Hindi Original | Subtítulos: Español, Inglés | 5 Partes (990 MB) | 4.66 GB Título original: 3 Idiots Otros Títulos: 3 Idiotas Año: 2009 Duración: 160 min. País: India Dirección: Rajkumar Hirani Guion: Vidhu Vinod Chopra, Rajkumar Hirani, Abhijat Joshi. Novela: Chetan Bhagat Música: Shantanu Moitra Fotografía: C.K. Muraleedharan Reparto: Aamir Khan, Kareena Kapoor, Madhavan, Sharman Joshi, Omi Vaidya, Boman Irani, Mona Singh, Rahul Kumar, Parikshat Sahni, Amardeep Jha, Farida Dadi, Ali Fazal, Achyut Potdar, ver 5 más Productora: Vidhu Vinod Chopra Género: Comedia. Romance. Drama. Musical | Colegios & Universidad. Enseñanza. Amistad Cuenta la historia de Rancho, un chico con una pasión por estudiar y aprender. En la escuela de ingenieros, entablará amistad con Raju y Farham que acabarán por convertirse en sus dos mejores amigos. Pero al graduarse pierden el contacto y sus dos amigos deciden ir en su búsqueda. General Unique ID : 3.Idiots.2009.BRRip.1080p.HiNDi.ORiGiNAL.x264.AC3.mkv Format : Matroska Format version : Version 4 File size : 4.67 GiB Duration : 2 h 51 min Overall bit rate : 3 903 kb/s Movie name : 3.Idiots.2009.BRRip.1080p.HiNDi.ORiGiNAL.x264.AC3 Encoded date : UTC 2022-04-18 19:14:33 Writing application : mkvmerge v66.0.0 ('Josie') 64-bit Writing library : libebml v1.4.2 + libmatroska v1.6.4 Video ID : 1 Format : AVC Format/Info : Advanced Video Codec Format profile : [email protected] Format settings : CABAC / 4 Ref Frames Format settings, CABAC : Yes Format settings, Reference frames : 4 frames Codec ID : V_MPEG4/ISO/AVC Duration : 2 h 51 min Bit rate : 3 261 kb/s Width : 1 920 pixels Height : 1 080 pixels Display aspect ratio : 16:9 Frame rate mode : Constant Frame rate : 23.976 (24000/1001) FPS Color space : YUV Chroma subsampling : 4:2:0 Bit depth : 8 bits Scan type : Progressive Bits/(Pixel*Frame) : 0.066 Stream size : 3.90 GiB (84%) Writing library : x264 core 155 r2893 b00bcaf Default : Yes Forced : No Color range : Limited Color primaries : BT.709 Transfer characteristics : BT.709 Matrix coefficients : BT.709 Audio ID : 2 Format : AC-3 Format/Info : Audio Coding 3 Commercial name : Dolby Digital Codec ID : A_AC3 Duration : 2 h 51 min Bit rate mode : Constant Bit rate : 640 kb/s Channel(s) : 6 channels Channel layout : L R C LFE Ls Rs Sampling rate : 48.0 kHz Frame rate : 31.250 FPS (1536 SPF) Compression mode : Lossy Stream size : 783 MiB (16%) Language : Hindi Service kind : Complete Main Default : Yes Forced : No Text #1 ID : 3 Format : UTF-8 Codec ID : S_TEXT/UTF8 Codec ID/Info : UTF-8 Plain Text Duration : 2 h 46 min Bit rate : 63 b/s Count of elements : 2135 Stream size : 77.6 KiB (0%) Title : Español Language : Spanish Default : Yes Forced : No Text #2 ID : 4 Format : UTF-8 Codec ID : S_TEXT/UTF8 Codec ID/Info : UTF-8 Plain Text Duration : 2 h 46 min Bit rate : 54 b/s Count of elements : 2134 Stream size : 66.4 KiB (0%) Title : English Language : English Default : Yes Forced : No Descargar desde UPLOADED - RAPIDGATOR - SEND - UP-4EVER https://justpaste.it/4inxo Para descomprimir el archivo debes usar el Winrar v6.11 https://justpaste.it/9lq47 Si los enlaces están muertos solo avísame respondiendo en el tema y lo soluciono. Siempre estoy suscrito a mis aportes.
  10. Microsoft Office LTSC Professional Plus 2021 Perpetual VL v2108 Build 14332.20281 Microsoft Office LTSC Professional Plus 2021 Perpetual VL v2108 Build 14332.20281 | Exe | Multilenguaje (Español) | x64 Bits | Medicina Incl. | Comprimido: Si | 4 Partes (990 MB) | 3.75 GB Microsoft ha anunciado oficialmente la disponibilidad de la versión final de su lanzamiento de Office 2021 para usuarios de Windows y Mac. Tras el lanzamiento de la versión preliminar en la primera mitad de este año, el producto se ha perfeccionado y ahora está disponible para los usuarios. Office 2021 incluye versiones actualizadas de aplicaciones de la suite, Word, Excel, PowerPoint, Outlook, Access y Publisher. Microsoft Access 2021. Microsoft Excel 2021. Microsoft Lync 2021. Microsoft OneNote 2021. Microsoft Outlook 2021. Microsoft PowerPoint 2021. Microsoft Publisher 2021. Microsoft Visio Viewer 2021. Microsoft Word 2021. Microsoft Visio pro 2021. Microsoft Project 2021. Skype for business 2021. OneDrive for Business 2021. Office Shared Features. Profing Tools Only 2021. Requisitos de Sistema: Equipo y procesador: 1 gigahercio (GHz) o un procesador x86-bit o 64-bits más rápido con SSE2. Memoria: 1 GB de RAM (32 bits); 2 GB de RAM (64-bit). Disco duro: 3,0 GB de espacio disponible en disco. Visualización: 1024 x 768 de resolución de pantalla. Gráficos: La aceleración de hardware de gráficos requiere una tarjeta gráfica DirectX 10. Sistema operativo: Windows 10, 11. Navegador: Navegadores compatibles con Office 2016 y Office 365 (incluye los requisitos de navegador para utilizar aplicaciones para Office y Word reproducción de vídeo). Otro: La funcionalidad de Internet requiere una conexión a Internet. Puede ser de pago. Características multi-touch requieren un dispositivo táctil. Todas las características y funciones están siempre disponibles a través de un teclado, ratón u otro dispositivo de entrada estándar o accesible. Las nuevas características táctiles están optimizados para su uso con Windows 10. Cuenta de Microsoft. Algunas características requieren una cuenta de Skype. La funcionalidad del producto y los gráficos pueden variar en función de la configuración del sistema. Algunas características pueden requerir hardware adicional o avanzado o conectividad del servidor. Descargar desde UPLOADED - RAPIDGATOR - SEND - UP-4EVER https://justpaste.it/4ugr0 Para descomprimir el archivo debes usar el Winrar v6.11 https://justpaste.it/9lq47 Si los enlaces están muertos solo avísame respondiendo en el tema y lo soluciono. Siempre estoy suscrito a mis aportes.
  11. Microsoft Office LTSC Professional Plus 2021 Perpetual VL v2108 Build 14332.20281 Microsoft Office LTSC Professional Plus 2021 Perpetual VL v2108 Build 14332.20281 | Exe | Multilenguaje (Español) | x64 Bits | Medicina Incl. | Comprimido: Si | 4 Partes (990 MB) | 3.75 GB Microsoft ha anunciado oficialmente la disponibilidad de la versión final de su lanzamiento de Office 2021 para usuarios de Windows y Mac. Tras el lanzamiento de la versión preliminar en la primera mitad de este año, el producto se ha perfeccionado y ahora está disponible para los usuarios. Office 2021 incluye versiones actualizadas de aplicaciones de la suite, Word, Excel, PowerPoint, Outlook, Access y Publisher. Microsoft Access 2021. Microsoft Excel 2021. Microsoft Lync 2021. Microsoft OneNote 2021. Microsoft Outlook 2021. Microsoft PowerPoint 2021. Microsoft Publisher 2021. Microsoft Visio Viewer 2021. Microsoft Word 2021. Microsoft Visio pro 2021. Microsoft Project 2021. Skype for business 2021. OneDrive for Business 2021. Office Shared Features. Profing Tools Only 2021. Requisitos de Sistema: Equipo y procesador: 1 gigahercio (GHz) o un procesador x86-bit o 64-bits más rápido con SSE2. Memoria: 1 GB de RAM (32 bits); 2 GB de RAM (64-bit). Disco duro: 3,0 GB de espacio disponible en disco. Visualización: 1024 x 768 de resolución de pantalla. Gráficos: La aceleración de hardware de gráficos requiere una tarjeta gráfica DirectX 10. Sistema operativo: Windows 10, 11. Navegador: Navegadores compatibles con Office 2016 y Office 365 (incluye los requisitos de navegador para utilizar aplicaciones para Office y Word reproducción de vídeo). Otro: La funcionalidad de Internet requiere una conexión a Internet. Puede ser de pago. Características multi-touch requieren un dispositivo táctil. Todas las características y funciones están siempre disponibles a través de un teclado, ratón u otro dispositivo de entrada estándar o accesible. Las nuevas características táctiles están optimizados para su uso con Windows 10. Cuenta de Microsoft. Algunas características requieren una cuenta de Skype. La funcionalidad del producto y los gráficos pueden variar en función de la configuración del sistema. Algunas características pueden requerir hardware adicional o avanzado o conectividad del servidor. Descargar desde UPLOADED - RAPIDGATOR - SEND - UP-4EVER https://justpaste.it/4ugr0 Para descomprimir el archivo debes usar el Winrar v6.11 https://justpaste.it/9lq47 Si los enlaces están muertos solo avísame respondiendo en el tema y lo soluciono. Siempre estoy suscrito a mis aportes.
  12. TechSmith Snagit 2022 v2022.0.1 Build 15562 TechSmith Snagit 2022 v2022.0.1 Build 15562 | Exe | Multilenguaje (Español) | Medicina Incl. | Comprimido: Si | 324.45 MB Con la tecnología de Snagit para realizar capturas, editar, organizar y compartir, resulta fácil crear efectos visuales atractivos que capten la atención. Deja a las imágenes hablar para ti. Snagit te ayudará a capturar cualquier imagen que deseas directamente desde la pantalla del ordenador. Mejora con transparencia, rótulos y otros efectos para activar una simple pantalla en una imagen que llama la atención. Organiza tus imágenes fácilmente y utilízalas una y otra vez para otros proyectos. A continuación, luce tus creaciones de Snagit a cualquier persona. Todo lo que necesitas hacer es añadir tus documentos y presentaciones o compartirlas utilizando tus aplicaciones favoritas. No tarda mucho explicar un concepto o una idea con Snagit. Las imágenes que creas hablan para ti y cuanto más usas Snagit, más formas encontrarás a usarlo. Combina imágenes: Crea gráficos personalizados fácilmente tomando múltiples capturas y poniéndolos juntos. Focaliza y amplia: Llama la atención a una parte específica de la imagen. Todo lo que necesitas hacer es seleccionar la parte que deseas y Snagit desenfocará y oscurecerá todo lo demás. Herramientas de marcado: Agrega efectos a tu imagen, incluso si no tienes un grado de diseño. Llama la atención con flechas, agrega un rótulo de texto o efectos de bordes rasgados, para nombras sólo unos pocos efectos. Almacenamiento automático: Todas tus capturas se guardarán automáticamente en tu biblioteca y las más recientes serán visibles todo el tiempo. Ahorra tiempo al encontrar rápidamente tus capturas antiguas. Etiquetado: Al guardar tu captura, Snagit también almacena información para que las puedas encontrar de nuevo más tarde. Búsqueda de tu captura por fecha, página web o un indicador personalizado que creaste y asignaste. [B]Correcciones y novedades en TechSmith SnagIt 2022:[/B] Almacenamiento de biblioteca en la nube: Almacena tu biblioteca en la nube para acceder a tus capturas desde cualquier computadora y haz una copia de seguridad de ellas automáticamente. Snagit admite los siguientes servicios de almacenamiento de terceros. Caja. Negocio de Dropbox. Dropbox Personal. iCloud (Windows solo por ahora). OneDrive para empresas. Personal de OneDrive. Formato de archivo multiplataforma: Abra y edite los mismos archivos Snagit en computadoras Windows y Mac. El formato de archivo SNAGX de Snagit reemplaza el antiguo formato SNAG para Windows y el formato SNAGPROJ para Mac y es compatible con ambas plataformas. Coherencia de herramientas multiplataforma: Junto con el nuevo formato SNAGX viene una mayor consistencia entre Windows y Mac. Disfrute de nuevas propiedades de herramientas para obtener estilos más uniformes en todas las plataformas. Video de imagen en imagen: Grabe su pantalla y cámara web al mismo tiempo con la función Picture-in-Picture de Snagit. Mejore su video con un toque más personal. Comuníquese más claramente a través de expresiones faciales. Controle el tamaño y la ubicación del video de la cámara web en su grabación. Apague y encienda la cámara durante la grabación según sea necesario. Mejoras de vídeo: Snagit 2022 cuenta con un motor de video actualizado para una mayor estabilidad, sincronización mejorada de audio y video y mejor compatibilidad con una mayor variedad de cámaras web. Información sobre herramientas de vídeo: La gran cantidad de herramientas de Snagit lo ayudan a marcar y anotar capturas de forma rápida y clara. Descúbralos todos con información sobre herramientas recientemente mejorada. Estas animaciones explicativas fáciles de entender lo ayudan a mejorar sus flujos de trabajo existentes y brindan oportunidades para descubrir herramientas de Snagit que antes se pasaban por alto. Requerimientos de Sistema: Microsoft Windows 10, Windows 8.1, Windows 7 SP1, Windows Server 2016 o Windows Servidor 2012 R2. Procesador de un solo núcleo de 2,4 GHz (se requiere dual core i5 para la captura de vídeo). 1 GB de RAM (se requieren 4 GB para la captura de vídeo). 500 MB de espacio en el disco duro para la instalación del programa. .NET 4.6 o posterior. Recomendamos la instalación de Snagit de 64 bits cuando se utilizan monitores múltiples o una pantalla de 4k. Descargar desde UPLOADED - RAPIDGATOR - SEND - UP-4EVER https://justpaste.it/61l5c Para descomprimir el archivo debes usar el Winrar v6.11 https://justpaste.it/9lq47 Si los enlaces están muertos solo avísame respondiendo en el tema y lo soluciono. Siempre estoy suscrito a mis aportes.
  13. Windows 10 21H2 Build.19044.1288 [32/64 Bits][Multiples Ediciones][ES-MX][ISO Original] [Multples Ediciones] Windows 10 21H2 Build.19044.1288 [32/64 Bits][Multiples Ediciones][ES-MX][ISO Original] | Medicina Incl. | Comprimido: Si | 32 Bits (3.54) - 64 Bits (5.06 GB) Windows 10 es todo lo que debió ser Windows 8, al menos eso es todo lo que Microsoft ha dado a entender durante sus dos eventos y la versión de previa del nuevo sistema operativo de la empresa. Con la primera versión previa de Windows 10, habilitada en octubre de 2014, la empresa sólo nos mostró algunas de las cosas que tiene preparadas y en la próxima versión de prueba que se habilitará la semana del 25 de enero, la empresa promete integrar aún más de las novedades de Windows 10. Sin embargo, estas versiones previas siempre tienen errores y no deberías instalarlas en tu computadora principal. Esta nueva versión de Windows busca corregir muchas de las críticas y pesadillas que surgieron debido al gran cambio de Windows 8. Windows 10 también es un intento más profundo de unificar la experiencia de computadoras y dispositivos móviles, al igual que el gran ecosistema de Microsoft. WINDOWS 10 ESTÁ DISPONIBLE EN SIETE EDICIONES: Home: Es la versión estándar de Windows 10, equivalente a las ediciones Starter y Home de sus antecesores. Pro: Es la versión orientada a usuarios de pequeñas empresas y entusiastas, equivalente a las ediciones Professional y Ultimate de sus antecesores. Mobile: Es la variante destinada a dispositivos móviles de menos de 8 pulgadas, siendo sucesor de la familia Windows Phone. Mobile Enterprise: Esta edición permite licenciar el sistema operativo a teléfonos inteligentes y tabletas que forman parte de una red empresarial. Enterprise: Similar a Windows 10 Pro, con características adicionales para asistir con organizaciones IT. No está disponible en mercados emergentes. Education: Derivada de la anterior, su uso está orientado a entidades educativas y académicas. IOT Core: Esta edición solo está disponible en dispositivos de bajo coste y de características limitadas. Requisitos: Básicamente, si tu PC puede usar Windows 8.1, entonces no debería haber problemas. Si no estás seguro, no te preocupes: Windows revisa el sistema para ver si puede instalar la versión preliminar. Procesador: 1 gigahercio (GHz) o superior RAM: 1 gigabyte (GB) (32 bits) o 2 GB (64 bits) Espacio disponible en el disco duro: 16 GB Tarjeta gráfica: dispositivo gráfico Microsoft DirectX 9 con controlador WDDM Una cuenta de Microsoft y acceso a Internet Descargar desde UPLOADED - RAPIDGATOR - SEND - UP-4EVER https://justpaste.it/3g4fu Para descomprimir el archivo debes usar el Winrar v6.11 https://justpaste.it/9lq47 Si los enlaces están muertos solo avísame respondiendo en el tema y lo soluciono. Siempre estoy suscrito a mis aportes.
  14. Rhinoceros 7 v7.17.22102.05001 Rhinoceros 7 v7.17.22102.05001 | Exe | Multilenguaje (Español) | Medicina Incl. | Comprimido: Si | Rar | 285.19 MB Rhinoceros (también conocido como Rhino, Rhino3D o Rhinoceros 3D) es un sistema de diseño avanzado asistido por computadora (CAD), gráficos en 3D y software de modelado 3D. El programa se puede utilizar en un gran número de propósitos, como la impresión 3D, diseño y fabricación (CAD / CAM), prototipado rápido, ingeniería inversa, así como para el diseño gráfico y las industrias multimedia. Proporciona una amplia gama de herramientas versátiles, que le permite modelar con precisión sus diseños, listos para diversas necesidades tales como representación, ingeniería, redacción, análisis, animación, así como fabricación. Rhino 7 es la actualización más importante de nuestra historia. Cree formas orgánicas con las nuevas herramientas de SubD. Ejecute Rhino y Grasshopper como complemento de Revit con Rhino.Inside.Revit. Utilice el algoritmo de RemalladoCuad para crear una malla cuadrangular a partir de mallas o geometría NURBS. En esta versión, hemos creado flujos de trabajo de modelado completamente nuevos y hemos mejorado muchas funciones. Características principales: Transformación de objetos en 2D y 3D Análisis de modelos 3D y fabricación Herramientas de creación y dibujo de curvas Curvas NURBS, superficies y sólidos Representación, animación y redacción Capacidades de secuencias de comandos con SDK de C ++ Soporta mallas poligonales y puntos Herramientas de creación de superficies y sólidos Muchos modos de visualización, y mucho más. Requisitos de Sistema: Windows 10 u 8.1. Procesador AMD o Intel de 64 bits (no en ARM). Se recomienda 8 GB de memoria (RAM) o más. 600 MB de espacio en disco duro. Se recomiendan las tarjetas de vídeo compatibles con OpenGL 4.1. Se recomienda 4 GB o más de RAM de vídeo. Se recomiendan ratones con varios botones y una rueda de desplazamiento. SpaceNavigator es opcional Descargar desde UPLOADED - RAPIDGATOR - SEND - UP-4EVER https://justpaste.it/3ukwf Para descomprimir el archivo debes usar el Winrar v6.11 https://justpaste.it/9lq47 Si los enlaces están muertos solo avísame respondiendo en el tema y lo soluciono. Siempre estoy suscrito a mis aportes.
  15. CrystalIdea Uninstall Tool v3.6.0 Build 5684 CrystalIdea Uninstall Tool v3.6.0 Build 5684 | Exe | Multilenguaje (Español) | Medicina Incl. | Comprimido: Si | 13.18 MB Liberado: Abril 13 de 2022 Uninstall Tool es una herramienta que puede ayudarte a desinstalar programas de tu sistema. Rápida, pequeña y muy fácil de usar, es el sustituto perfecto de la utilidad estándar de Windows presente en el Panel de Control. Tiene soporte para varios idiomas y su tamaño permite ejecutarlo incluso desde un dispositivo portátil de memoria USB. En la lista de programas muestra el tamaño que ocupa cada uno de ellos e incluso las aplicaciones ocultas. Desde esta lista podrás desinstalar cualquier programa y borrar las entradas de aquellas aplicaciones que ya no se encuentran en el sistema pero por algún motivo siguen apareciendo ahí. Uninstall Tool cuenta también con un sencillo administrador de las aplicaciones que se ejecutan al inicio de Windows, un buscador integrado con el que llegar en seguida a la aplicación que buscas, permite abrir directamente el directorio y entrada del Registro del programa seleccionado y cuenta con la posibilidad de exportar a HTML la lista de programas. Características principales: (Opciones) se ejecutan automáticamente al inicio del sistema Retire completamente cualquier software! (usando Instalar Tracker (Monitor de instalación) y tecnologías Desinstalar Asistente) 3 veces más rápido que el programa de eliminación estándar Sistema Desinstalar y programas ocultos Agregar / quitar programas que se ejecutan automáticamente al iniciar el sistema Modo Portátil: ejecutar desde una unidad flash USB Desinstalar programas que no se pueden quitar por Agregar programa / Eliminar. Desinstalar a fuerza bruta relacionados con el registro y archivos elementos del sistema Smart Search permite encontrar rápidamente cualquier aplicación que necesitas. Versión nativa X64 para las versiones de 64 bits de Windows (instalación sencilla) Las operaciones de expulsión por lotes Destacando de aplicaciones instaladas recientemente en la lista Vaya a una entrada del registro, carpeta de instalación de un programa seleccionado y su sitio Web. Ver información detallada de una determinada aplicación instalada en su ordenador. Fácil de usar y moderna interfaz de usuario que permite trabajar cómodamente con la herramienta de desinstalación. La interfaz multilingüe con soporte nativo de 35 idiomas Icono del Panel de control de informes HTML, ejecutar diferentes herramientas de Windows Cambios en CrystalIdea Uninstall Tool v3.6.0 Build 5684: NUEVO Visualización de elementos de inicio provenientes de Windows UWP Apps #78. NUEVO Administrador de inicio: Se activa con una tarea de la barra de tareas y con un interruptor de línea de comando #79. MEJORADO Proceso de configuración mejorado. MEJORADO Mejor detección de elementos de inicio enumerados en el programador de tareas de Windows. MEJORADO Mejor detección de procesos secundarios de desinstalación. MEJORADO Mejor detección de la fecha de instalación de una aplicación. MEJORADO Ahora compatible con Windows 7 y versiones posteriores. Leer más #80. MEJORADO Actualización de traducciones. CORREGIDO El filtro de busqueda se restablece cuando se carga por primera vez las aplicaciones de Windows Store #77. CORREGIDO Se corrigió la extensión de Shell que bloqueaba el bloqueo del Explorador de Windows con la extensión de shell de NVIDIA instalada # 75. CORREGIDO Se corrigió la ejecución de la versión portátil de la aplicación desde una ruta que contenía un espacio. Descargar desde UPLOADED - RAPIDGATOR - SEND - UP-4EVER https://justpaste.it/3ib3w Para descomprimir el archivo debes usar el Winrar v6.11 https://justpaste.it/9lq47 Si los enlaces están muertos solo avísame respondiendo en el tema y lo soluciono. Siempre estoy suscrito a mis aportes.
  16. CrystalIdea Uninstall Tool v3.6.0 Build 5684 CrystalIdea Uninstall Tool v3.6.0 Build 5684 | Exe | Multilenguaje (Español) | Medicina Incl. | Comprimido: Si | 13.18 MB Liberado: Abril 13 de 2022 Uninstall Tool es una herramienta que puede ayudarte a desinstalar programas de tu sistema. Rápida, pequeña y muy fácil de usar, es el sustituto perfecto de la utilidad estándar de Windows presente en el Panel de Control. Tiene soporte para varios idiomas y su tamaño permite ejecutarlo incluso desde un dispositivo portátil de memoria USB. En la lista de programas muestra el tamaño que ocupa cada uno de ellos e incluso las aplicaciones ocultas. Desde esta lista podrás desinstalar cualquier programa y borrar las entradas de aquellas aplicaciones que ya no se encuentran en el sistema pero por algún motivo siguen apareciendo ahí. Uninstall Tool cuenta también con un sencillo administrador de las aplicaciones que se ejecutan al inicio de Windows, un buscador integrado con el que llegar en seguida a la aplicación que buscas, permite abrir directamente el directorio y entrada del Registro del programa seleccionado y cuenta con la posibilidad de exportar a HTML la lista de programas. Características principales: (Opciones) se ejecutan automáticamente al inicio del sistema Retire completamente cualquier software! (usando Instalar Tracker (Monitor de instalación) y tecnologías Desinstalar Asistente) 3 veces más rápido que el programa de eliminación estándar Sistema Desinstalar y programas ocultos Agregar / quitar programas que se ejecutan automáticamente al iniciar el sistema Modo Portátil: ejecutar desde una unidad flash USB Desinstalar programas que no se pueden quitar por Agregar programa / Eliminar. Desinstalar a fuerza bruta relacionados con el registro y archivos elementos del sistema Smart Search permite encontrar rápidamente cualquier aplicación que necesitas. Versión nativa X64 para las versiones de 64 bits de Windows (instalación sencilla) Las operaciones de expulsión por lotes Destacando de aplicaciones instaladas recientemente en la lista Vaya a una entrada del registro, carpeta de instalación de un programa seleccionado y su sitio Web. Ver información detallada de una determinada aplicación instalada en su ordenador. Fácil de usar y moderna interfaz de usuario que permite trabajar cómodamente con la herramienta de desinstalación. La interfaz multilingüe con soporte nativo de 35 idiomas Icono del Panel de control de informes HTML, ejecutar diferentes herramientas de Windows Cambios en CrystalIdea Uninstall Tool v3.6.0 Build 5684: NUEVO Visualización de elementos de inicio provenientes de Windows UWP Apps #78. NUEVO Administrador de inicio: Se activa con una tarea de la barra de tareas y con un interruptor de línea de comando #79. MEJORADO Proceso de configuración mejorado. MEJORADO Mejor detección de elementos de inicio enumerados en el programador de tareas de Windows. MEJORADO Mejor detección de procesos secundarios de desinstalación. MEJORADO Mejor detección de la fecha de instalación de una aplicación. MEJORADO Ahora compatible con Windows 7 y versiones posteriores. Leer más #80. MEJORADO Actualización de traducciones. CORREGIDO El filtro de busqueda se restablece cuando se carga por primera vez las aplicaciones de Windows Store #77. CORREGIDO Se corrigió la extensión de Shell que bloqueaba el bloqueo del Explorador de Windows con la extensión de shell de NVIDIA instalada # 75. CORREGIDO Se corrigió la ejecución de la versión portátil de la aplicación desde una ruta que contenía un espacio. Descargar desde UPLOADED - RAPIDGATOR - SEND - UP-4EVER https://justpaste.it/3ib3w Para descomprimir el archivo debes usar el Winrar v6.11 https://justpaste.it/9lq47 Si los enlaces están muertos solo avísame respondiendo en el tema y lo soluciono. Siempre estoy suscrito a mis aportes.
  17. CCleaner Professional Plus v6.00 CCleaner Professional Plus v6.00 | Exe | Multilenguaje (Español) | Medicina Incl. | Comprimido: Si | Rar | 57.52 MB CCleaner Professional Plus es un software completo que incluye todas las versiones profesionales de CCleaner, Defraggler, Recuva y Speccy. Le ayudará a hacer que su computadora sea más limpia, más rápida, más segura y garantizar que su trabajo sea estable y confidencial. Al usar este programa, puede controlar totalmente su computadora, puede eliminar aplicaciones innecesarias de su sistema, limpiar archivos potencialmente no deseados y entradas inválidas del Registro de Windows para acelerar su computadora, puede desfragmentar archivos individuales, grupos de archivos o todo el disco , recupera archivos borrados, inválidos, formateados, generar información detallada sobre su hardware y software, y mucho más. CCleaner Professional Plus incluye la última versión de CCleaner Pro, Defraggler Pro, Recuva Pro y Speccy Pro. Ofrece un conjunto completo de funciones y un empaquetado muy inteligente, con una interfaz fácil de usar, intuitiva y moderna. Principales características: Conjunto de funciones simples pero completas. Mantener el registro de la computadora limpio y el historial de navegación. Aceleración y liberar espacio de almacenamiento adicional. Eliminación de archivos y entradas de registro no deseados. Desfragmentación de archivos individuales , grupos o unidad completa. Escanee y solucione cualquier problema descubierto fácilmente. Diseño fácil de usar, intuitivo y liviano. Administre el inicio, desinstale aplicaciones y borre unidades Y mucho más. Novedades de CCleaner Pro Plus v6.00: Todas las versiones más recientes de programas. Otras correcciones de errores y mejoras. Requisitos de Sistema: Con tener instalado uno de estos Windows es suficiente. Windows 10 (Todas las ediciones, incluyendo 64-bit) Windows 8 (Todas las ediciones, incluyendo 64-bit) Windows 7 (Todas las ediciones, incluyendo 64-bit) Windows Vista (Todas las ediciones, incluyendo 64-bit) Windows XP (Home, Professional, Media Center, Tablet Edition, 64-bit) Windows 2003 and 2008 Server (Todas las ediciones). Windows 2000 Descargar desde UPLOADED - RAPIDGATOR - SEND - UP-4EVER https://justpaste.it/7mssj Para descomprimir el archivo debes usar el Winrar v6.11 https://justpaste.it/9lq47 Si los enlaces están muertos solo avísame respondiendo en el tema y lo soluciono. Siempre estoy suscrito a mis aportes.
  18. CCleaner Professional Edition v6.00.9727 CCleaner Professional Edition v6.00.9727 | Exe + Portable | 64 Bits | Muntileng. (Español) | Medicina Incl. | Comprimido: Si | Rar | 92.21 MB Liberado: Mayo 12 de 2022 El muy bueno, conocido y ponderado CCleaner. Una super herramienta para que mantengas tu computadora siempre limpia como un espejito en lo que a basura de los software se refiere. Si no conoces o no has probado esta herramienta, no pierdas el tiempo y hazlo ahora mismo y conoce todas sus funciones. CCleaner es la herramienta número uno para la limpieza de tu PC con Windows. Protege tu privacidad en línea y hace que su ordenador sea más rápido y más seguro. Fácil de usar. Limpia todo esto y mas: Internet Explorer. Firefox. Google Chrome. Opera. Safari. Windows. Registro. Cambios en la versión 6.00.9727 Ayudándole a mantener su PC funcionando rápido y sin problemas. Se agregó una nueva función de Optimizador de rendimiento. Busca aplicaciones que se ejecutan en segundo plano. Le permite dormir aplicaciones que no son necesarias, lo que reduce la carga del sistema. Mantiene las aplicaciones dormidas mientras no están en uso. Despierta las aplicaciones de forma segura cuando usted u otra aplicación lo necesitan. Contiene una guía y una sección de preguntas frecuentes. Solucionamos algunos errores encontrados durante nuestra fase de prueba de vista previa de características. Puede leer más sobre esta característica en nuestra publicación de blog. Ampliando nuestra limpieza. Limpieza adicional de registros de distribución de software de Windows. Se agregó la limpieza opcional de los archivos de respaldo de los programas de Google. Se agregó la limpieza opcional de los archivos de respaldo de los programas de Apple. Limpieza opcional agregada de archivos de copia de seguridad de Steam.. Limpieza mejorada del historial de Internet de Safari. Limpieza mejorada de la caché de Internet de Chromium (archivos JS). Eliminando las molestias del mantenimiento de la PC. ¡Hemos agregado 50 nuevas aplicaciones a nuestro Actualizador de software!. Simplificando la aplicación. Se agregó un útil botón Pegar en la pantalla Clave de licencia. Pantalla de menú de cuenta mejorada para pantallas de alto DPI. Hizo que algunos errores de registro de licencia fueran más comprensibles. Para evitar contratiempos, CCleaner siempre se instalará en una carpeta /CCleaner/. Hacer que la aplicación sea inclusiva (Accesibilidad). Nuestra nueva característica Performance Optimizer tiene soporte completo para el lector de pantalla NVDA. El menú Administrador de cuentas ahora funciona mejor con el lector de pantalla NVDA. Manteniéndote a salvo. Como parte de nuestro compromiso continuo con la seguridad, hemos realizado varias mejoras de seguridad menores basadas en pruebas (pruebas de penetración, análisis de código estático). Actualizaciones como estas son medidas preventivas típicas tomadas por todas las buenas compañías de software.. Requisitos de Sistema: Con tener instalado uno de estos Windows es suficiente. Windows 10 (Todas las ediciones, incluyendo 64-bit) Windows 8 (Todas las ediciones, incluyendo 64-bit) Windows 7 (Todas las ediciones, incluyendo 64-bit) Windows Vista (Todas las ediciones, incluyendo 64-bit) Windows XP (Home, Professional, Media Center, Tablet Edition, 64-bit) Windows 2003 and 2008 Server (Todas las ediciones). Windows 2000 Descargar desde UPLOADED - RAPIDGATOR - SEND - UP-4EVER https://justpaste.it/1wss2 Para descomprimir el archivo debes usar el Winrar v6.11 https://justpaste.it/9lq47 Si los enlaces están muertos solo avísame respondiendo en el tema y lo soluciono. Siempre estoy suscrito a mis aportes.
  19. Bulk Image Downloader v6.11.0 Bulk Image Downloader v6.11.0 | Exe | 32 Bits & 64 Bits | Multilenguaje (Español) | Medicina Incl. | Comprimido: Si | 28.16 MB Liberado: Mayo 12 de 2022 Bulk Image Downloader, conocido como (BID) es un software de descarga de imágenes potente pero extremadamente fácil de usar. que se integra con tus navegadores favoritos. Está diseñado para pasar por alto todas las ventanas emergentes y anuncios molestos y descargar y guardar automáticamente las imágenes de las galerías de la página web en su computadora. Bulk Image Downloader es compatible con casi todos los sitios de alojamiento de imágenes populares y también puede extraer información de imágenes de archivos de texto normales y páginas web donde los enlaces de imágenes se muestran como texto sin formato. Con Bulk Image Downloader tienes una manera simple de descargar todas las imágenes en una página web, puede descargar imágenes de tamaño completo desde casi cualquier sitio. Bulk Image Downloader (BID) no solo le permite descargar imágenes, sino que también puede descargar archivos de video en miniatura, incluidos .avi, .mpeg, .wmv, .mov y más; y admite videos alojados en sitios como YouTube, MegaVideo, Metacafe, DailyMotion y más. Características principales: Método heurístico avanzado para localizar imágenes de tamaño completo. Descarga automática por lotes de listas de URL. Puede descargar hasta 50 imágenes a la vez (simultáneamente). Cree sus propios nombres de archivo secuenciados con facilidad. Detecta y descarga imágenes de galerías de páginas múltiples. Se integra con Internet Explorer, Firefox, Chrome. Reanudar la descarga si la conexión se interrumpió. Escanee múltiples páginas y extraiga todos los enlaces de imagen. Soporte para sitios web protegidos con contraseña. Admite la descarga de álbumes de las redes sociales. Admite la descarga de videos desde YouTube, y más. Funciona con casi todos los sitios de alojamiento de imágenes populares. Soporte para Javascript, redirección y más. ¿Qué hay de nuevo en Bulk Image Downloader 5.98?: Ssoporte de búsqueda de imágenes de yandex actualizado. La detección de Bloqueo del servidor ahora se puede configurar por sitio a través de la lista Retrasos (Configuración avanzada). Agregue expresiones que coincidan con la URL del sitio precedida por un asterisco (*), por ejemplo: *<deviantart.com>. BID ahora puede manejar URL de hasta 1280 caracteres de longitud (anteriormente 1024). Requisitos de Sistema: Windows 2000 / XP / Vista / 7/8 / 8.1 / 10 (32 bits o 64 bits - todas las ediciones). Conexión a Internet. Descargar desde UPLOADED - RAPIDGATOR - SEND - UP-4EVER https://justpaste.it/9quwr Para descomprimir el archivo debes usar el Winrar v6.11 https://justpaste.it/9lq47 Si los enlaces están muertos solo avísame respondiendo en el tema y lo soluciono. Siempre estoy suscrito a mis aportes.
  20. GOM Player Plus v2.3.58.5322 GOM Player Plus v2.3.58.5322 | Exe |32 & 64 Bits | Multilenguaje (Español) | Medicina Incl. | Comprimido: Si | 52.83 MB GOM Player Plus es un reproductor multimedia multiusos que admite la mayoría de formatos de audio y video, compatibilidad con realidad virtual de 360 ??grados y muchas otras funciones avanzadas. Este software sigue siendo uno de los reproductores multimedia más potentes y accesibles. GOM Player Plus es un completo software de reproducción de medios que ofrece muchas funciones avanzadas, pero está equipado con una interfaz simple y muy fácil de usar. Además, el buscador de códecs asegura que cualquier formato de audio y video se pueda manejar con la aplicación. GOM Player Plus es una versión mejorada de GOM Player con una experiencia de usuario avanzada y una velocidad más rápida. Fue construido específicamente para computadoras x64, el reproductor de video viene con soporte para varios formatos de archivo, que van desde formatos populares como AVI, MP4, FLV, WMW, MKV, MOV y muchos otros, con soporte de alta resolución de video y puede reproducir 360 grados de video VR. Caracteristicas claves: Mucho más rápido y estable que GOM Player Free. Reproducir video de 360 ??grados VR de alta resolución de video. Visor lateral de múltiples ángulos y transición de pantalla. Reproduce todos los formatos de audio / video más populares. Elegante y enfocado en la experiencia de visualización de videos. Ajustar la configuración de ubicación, tamaño y sincronización. Repetición A-B, captura de pantalla y captura de medios. Códec, control de velocidad de reproducción y efectos de video. Mejora de rendimiento rápida significativo. Y mucho más. Requisitos de Sistema: Windows 7/8 / 8.1 / 10 (32 bits o 64 bits, todas las ediciones) Procesador de 1 GHz o más rápido. 2 GB de memoria RAM. 200 MB de espacio libre en el disco duro. Cambios en esta versión: [Mejora de la función] Interfaz de usuario emergente mejorada para editar marcadores. Se mejoró la configuración para cambiar la resolución de pantalla completa (compatibilidad con varios monitores). Se agregó la configuración de escala de DPI de pantalla completa (Windows 10). Descargar desde UPLOADED - RAPIDGATOR - SEND - UP-4EVER https://justpaste.it/7u919 Para descomprimir el archivo debes usar el Winrar v6.11 https://justpaste.it/9lq47 Si los enlaces están muertos solo avísame respondiendo en el tema y lo soluciono. Siempre estoy suscrito a mis aportes.
  21. VMware Workstation 16 v16.2.3 Build 19376536 VMware Workstation 16 v16.2.3 Build 19376536 | Exe | 64 Bits | Inglés, Español (Traducción) | Medicina Incl. | Comprimido: Si | Rar (Con Registro de Reparación)| 539.57 MB Ten Varios Sistemas Operativos en una PC, ideal para testear nuevos windows. VMware Workstation es una, sin duda, potente utilidad que permite lo increíble, conseguir que puedas tener varios sistemas operativos instalados sin necesidad de particiones, consiguiendo además que cambiar de uno a otro sea sencillísimo, casi tanto como cargar un programa más. Podrás, por tanto, simultanear varios sistemas operativos, combinando por ejemplo Windows XP con Linux sin ningún problema. Otra de sus ventajas es que una vez instalados los sistemas operativos adicionales a través de VMware podrás usarlos de forma individual y trasladarlos a otros PC tranquilamente. El programa anfitrión sólo puede ser ejecutado bajo Windows NT, 2000, XP o Vista (también existe versión para Linux) pero una vez hecho las posibilidades de instalar nuevos sistemas operativos se disparan. Es poco menos que asombroso poder abrir un sistema operativo dentro del propio y ejecutarlo en ventana, sin necesitar ningún reinicio, como si de un programa más se tratase o a pantalla completa, como si tu anterior sistema operativo hubiese desaparecido. Otra de las ventajas es que las instalaciones de sistemas operativos ?adicionales? son independientes, de forma que se pueden trasladar a otro equipo que también posea VMware y ahí tendrás ése sistema operativo entero y listo para funcionar. Características: Optimiza el desarrollo del software y las pruebas con las operaciones. Crea múltiples entornos de desarrollo y evaluación como máquinas virtuales en un solo ordenador y utilízalos para comprobar las configuraciones de múltiples niveles reales, redes complejas y múltiples sistemas operativos y aplicaciones, todo en un solo ordenador. Mejora la colaboración en equipo. La portabilidad y las propiedades independientes del hardware en las máquinas virtuales, junto con las nuevas características de VMware Workstation, permiten a los usuarios compartir fácilmente entornos de desarrollo además de las evaluaciones preconfiguradas sin riesgos y también facilitan la colaboración entre el desarrollo y el control de calidad. Mejora la productividad de los profesionales del mundo IT. Permite a los administradores del sistema y a otra empresa evaluar el software, incluyendo las nuevas aplicaciones, las actualizaciones de las aplicaciones y los ajustes del sistema operativo, en las máquinas virtuales antes de su desarrollo en los ordenadores físicos o servidores en un entorno de producción. Los departamentos de ayuda de las empresas IT pueden crear y hacer referencia a una biblioteca virtual para las configuraciones del usuario final y para ayudarles a resolver problemas con mayor rapidez. Introduce la infraestructura virtual en tu empresa. Las máquinas virtuales creadas en un lugar de trabajo pueden implementarse a los otros ordenadores personales y servidores o plataformas de virtualización ofrecidos por VMware. Introducir la virtualización de VMware Workstation en el escritorio es un paso ideal para transformar tu infraestructura física de IT en una infraestructura virtual. Requisitos de Sistema: Windows XP, Vista, 7, 8, 10 Arquitectura x86 o x64 Procesador Intel o AMD 1 Gb RAM o más Disco duro 80 Gb o más con formato NTFS Descargar desde UPLOADED - RAPIDGATOR - SEND - UP-4EVER https://justpaste.it/2x1v0 Para descomprimir el archivo debes usar el Winrar v6.11 https://justpaste.it/9lq47 Si los enlaces están muertos solo avísame respondiendo en el tema y lo soluciono. Siempre estoy suscrito a mis aportes.
  22. Wondershare Filmora X v10.7.8.12 Wondershare Filmora X v10.7.8.12| Exe | 64 Bits | Multilenguaje (Español) | Medicina Incl. | Comprimido: Si | Rar | 386.76 MB Crea vídeos de forma sencilla, como un profesional, con Wondershare Filmora X. Wondershare Filmora X nos ofrecen un completo conjunto de herramientas, normalmente en una interfaz unificada, con las que podremos realizar cuantos retoques sean necesarios a las grabaciones, así como montar las mismas para obtener el resultado deseado. Interfaz de usuario moderna y simple. Texto y títulos. Biblioteca de música. Superposiciones y filtros. Más de 80 filtros profesionales y efectos artísticos que incluyen efectos de partículas, efectos de fuego, efecto de cara a cara, mosaico y más. Más de 50 efectos de transición y movimiento. Efectos simples. Efectos avanzados. Admite la edición de formatos de video: MP4, FLV, MOV, AVI, MKV, FLV, WMV, TS, MTS, etc. Haga posible la edición de videos SD / HD caseros y descargados. Audio: MP3, WMA, WAV, M4A, AAC, AC3, OGG, etc., como música de fondo de los videos. Foto: BMP, JPG, PNG, GIF, etc. y crea películas caseras combinando fotos. Recortar, recortar y rotar videos. Elimine los bordes negros no deseados u otras partes no deseadas. Cambie el tono del audio, ajuste el volumen y elimine el ruido del video. Retoque su foto con brillo, contraste o saturación perfectos y convierta sus fotos en una presentación de diapositivas animada. Requisitos de Sistema: Microsoft Windows 10 (64-bit), Microsoft Windows 8 (64-bit). Procesador: Intel Core i5-3550, Core i7, o equivalente a AMD. RAM: 8 GB. Tarjeta de Video: NVIDIA GeForce GTX 970 o mejor. Intel Iris Plus Graphics 640 o mejor. Memoria de Video de 4GB. Descargar desde UPLOADED - RAPIDGATOR - SEND - UP-4EVER https://justpaste.it/2tfzg Para descomprimir el archivo debes usar el Winrar v6.11 https://justpaste.it/9lq47 Si los enlaces están muertos solo avísame respondiendo en el tema y lo soluciono. Siempre estoy suscrito a mis aportes.
  23. The Mirror Has Two Faces The Mirror Has Two Faces | Año: 1996 | WEB-DL 1080p | MKV | AC3 2.0 | Audios: Español Latino, Inglés | Subtítulos: Español, Inglés | 3 Partes (990 MB) | 2.52 GB Título original: The Mirror Has Two Faces Otros Títulos: El amor tiene dos caras (Latinoamérica) | El espejo tiene dos caras (España) Año: 1996 Duración: 126 min. País: Estados Unidos Dirección: Barbra Streisand Guion: Richard LaGravenese. Remake: André Cayatte, Gérard Oury Música: Marvin Hamlisch Fotografía: Dante Spinotti, Andrzej Bartkowiak Reparto: Barbra Streisand, Jeff Bridges, Pierce Brosnan, Lauren Bacall, Mimi Rogers, George Segal, Brenda Vaccaro, Laura Bailey, Austin Pendleton, Elle MacPherson Productora: TriStar Pictures, Phoenix Pictures, Arnon Milchan Production, Barwood Films Género: Comedia. Romance | Comedia romántica. Remake Rose y Gregory, ambos profesores de la Universidad de Columbia, entablan una relación sentimental. Sus puntos de vista son distintos. Gregory cree que las relaciones sexuales pueden arruinar su vida, pero Rose opina lo contrario. Remake de la película francesa El espejo tiene dos caras, de 1958. General Unique ID : 262299870982121757107177530950856451144 (0xC5551E1A98D39A9745E75DBE5D5BA448) Complete name : The.Mirror.Has.Two.Faces.1996.WEB.DL.FHD.1080p.LATiNO.ENG.x264.AC3.ACC.mkv Format : Matroska Format version : Version 4 File size : 2.53 GiB Duration : 2 h 6 min Overall bit rate : 2 859 kb/s Movie name : The.Mirror.Has.Two.Faces.1996.WEB.DL.FHD.1080p.LATiNO.ENG.x264.AC3.ACC Encoded date : UTC 2022-04-08 00:00:55 Writing application : mkvmerge v66.0.0 ('Josie') 64-bit Writing library : libebml v1.4.2 + libmatroska v1.6.4 Cover : Yes Attachments : cover.png Video ID : 1 Format : AVC Format/Info : Advanced Video Codec Format profile : [email protected] Format settings : CABAC / 4 Ref Frames Format settings, CABAC : Yes Format settings, Reference frames : 4 frames Codec ID : V_MPEG4/ISO/AVC Duration : 2 h 6 min Bit rate : 2 500 kb/s Width : 1 920 pixels Height : 1 080 pixels Display aspect ratio : 16:9 Frame rate mode : Constant Frame rate : 23.976 (23976/1000) FPS Color space : YUV Chroma subsampling : 4:2:0 Bit depth : 8 bits Scan type : Progressive Bits/(Pixel*Frame) : 0.050 Stream size : 2.21 GiB (87%) Writing library : x264 core 152 r2851M ba24899 Default : Yes Forced : No Audio #1 ID : 2 Format : E-AC-3 Format/Info : Enhanced AC-3 Commercial name : Dolby Digital Plus Codec ID : A_EAC3 Duration : 2 h 6 min Bit rate mode : Constant Bit rate : 128 kb/s Channel(s) : 2 channels Channel layout : L R Sampling rate : 48.0 kHz Frame rate : 31.250 FPS (1536 SPF) Compression mode : Lossy Delay relative to video : -43 ms Stream size : 116 MiB (4%) Title : Español Latino Language : Spanish Service kind : Complete Main Default : Yes Forced : No Audio #2 ID : 3 Format : AAC LC Format/Info : Advanced Audio Codec Low Complexity Codec ID : A_AAC-2 Duration : 2 h 6 min Bit rate : 224 kb/s Channel(s) : 2 channels Channel layout : L R Sampling rate : 48.0 kHz Frame rate : 46.875 FPS (1024 SPF) Compression mode : Lossy Delay relative to video : -43 ms Stream size : 203 MiB (8%) Title : Inglés Language : English Default : No Forced : No Text #1 ID : 4 Format : UTF-8 Codec ID : S_TEXT/UTF8 Codec ID/Info : UTF-8 Plain Text Duration : 2 h 4 min Bit rate : 65 b/s Count of elements : 2050 Stream size : 60.4 KiB (0%) Title : Español Language : Spanish Default : No Forced : No Text #2 ID : 5 Format : UTF-8 Codec ID : S_TEXT/UTF8 Codec ID/Info : UTF-8 Plain Text Duration : 2 h 0 min Bit rate : 81 b/s Count of elements : 1960 Stream size : 71.6 KiB (0%) Title : Inglés Language : English Default : No Forced : No Descargar desde UPLOADED - RAPIDGATOR - SEND - UP-4EVER https://justpaste.it/85qvq Para descomprimir el archivo debes usar el Winrar v6.11 https://justpaste.it/9lq47 Si los enlaces están muertos solo avísame respondiendo en el tema y lo soluciono. Siempre estoy suscrito a mis aportes.
  24. Halo: The Series Halo: The Series | Año: 2022 | Temporada 1 | WEB-DL 1080p | MKV | AC3 5.1 | Audios: Español Latino, Inglés | Subtítulos: Español | Comprimido: Si | RAR | ?1.2 GB Título original: Halo: The Series Titulo Latino: Halo: La serie Fecha de Estreno: 14 de Marzo de 2022 Duración: 58 minutos País: Estados Unidos Dirección: Steven Kane (Creador), Kyle Killen (Creador), Otto Bathurst, Jonathan Liebesman, Roel Reiné, Jessica Lowrey Guion: Kyle Killen, Steven Kane. Videojuego: Joseph Staten, 343 Industries Música: Sean Callery Fotografía: Karl Walter Lindenlaub, Eric Kress, Ed Wild Creadores: Steven Kan y Kyle Kille Actores Principales: Pablo Schreiber, Natascha McElhone, Bokeem Woodbine, Shabana Azmi, Bentley Kalu, Entre otros. Genero: Serie de TV, Ciencia ficción. Temática: Videojuego, Extraterrestres. Basada en la saga de videjuegos. En el siglo 26, la humanidad tiene que lidiar con una amenaza alienígena conocida como the Covenant (El Pacto). Halo tejerá historias personales repletas de acción, aventura y una enriquecedora visión del futuro. La serie es una historia independiente inspirada en la franquicia del videojuego, en lugar de una continuación, adaptación o precuela. Halo: La serie La humanidad se ve amenazada por extraterrestres en una épica confrontación del siglo XXVI. Serie de televisión basada en el videojuego Halo. Format : Matroska at 2 994 kb/s Video #0 : AVC at 2 500 kb/s Aspect : 1920 x 960 (2.000) at 24.000 fps Audio #0 : AC-3 at 256 kb/s Infos : 2 channels, 48.0 kHz Language : es Audio #1 : AC-3 at 256 kb/s Infos : 6 channels, 48.0 kHz Language : en Text #0 : UTF-8 Language : en Text #1 : UTF-8 Language : es Text #2 : UTF-8 Language : en Descargar desde UPLOADED - RAPIDGATOR - SEND - UP-4EVER https://justpaste.it/3dtmp Para descomprimir el archivo debes usar el Winrar v6.11 https://justpaste.it/9lq47 Si los enlaces están muertos solo avísame respondiendo en el tema y lo soluciono. Siempre estoy suscrito a mis aportes.
  25. Mathworks MATLAB R2022a Mathworks MATLAB R2022a | Exe | Inglés | Medicina Incl. | Comprimido: Si | 10 Partes (2 GB) | 19.8 GB MATLAB es un lenguaje de computación técnica de alto nivel y un entorno interactivo para desarrollo de algoritmos, visualización de datos, análisis de datos y cálculo numérico. Con MATLAB, podrá resolver problemas de cálculo técnico más rápidamente que con lenguajes de programación tradicionales, tales como C, C++ y FORTRAN. Puede usar MATLAB en una amplia gama de aplicaciones que incluyen procesamiento de señales e imágenes, comunicaciones, diseño de sistemas de control, sistemas de prueba y medición, modelado y análisis financiero y biología computacional. Los conjuntos de herramientas complementarios (colecciones de funciones de MATLAB para propósitos especiales, que están disponibles por separado) amplían el entorno de MATLAB permitiendo resolver problemas especiales en estas áreas de aplicación. Además, MATLAB contiene una serie de funciones para documentar y compartir su trabajo. Puede integrar su código de MATLAB con otros lenguajes y aplicaciones, y distribuir los algoritmos y aplicaciones que desarrollo usando MATLAB. Lenguaje de alto nivel para cálculo técnico Entorno de desarrollo para la gestión de código, archivos y datos Herramientas interactivas para exploración, diseño y resolución de problemas iterativos Funciones matemáticas para álgebra lineal, estadística, análisis de Fourier, filtraje, optimización e integración numérica Funciones gráficas bidimensionales y tridimensionales para visualización de datos Herramientas para crear interfaces gráficas de usuario personalizadas Funciones para integrar los algoritmos basados en MATLAB con aplicaciones y lenguajes externos, tales como C/C++, FORTRAN, Java, COM y Microsoft Excel. Aspectos destacados de la versión R2022a: Nuevos productos Bluetooth Toolbox: simule, analice y pruebe sistemas de comunicaciones Bluetooth. DSP HDL Toolbox: diseñe aplicaciones de procesamiento digital de señales para FPGA, ASIC y SoC. Industrial Communication Toolbox: intercambie datos a través de OPC UA, Modbus, MQTT y otros protocolos industriales. RoadRunner Scenario: cree y reproduzca escenarios de simulación de conducción autónoma. Wireless Testbench: explore y pruebe aplicaciones inalámbricas de referencia en tiempo real en hardware SDR. Actualizaciones importantes Econometrics Toolbox: realice pruebas de cointegración y ajuste modelos de series temporales multivariantes de manera interactiva en la app Econometric Modeler. MATLAB Compiler SDK: publique una función de MATLAB como microservicio de un contenedor Docker. MATLAB Production Server: asigne direcciones URL de solicitud personalizadas a funciones de MATLAB desplegadas, proporcione contenido estático, y personalice encabezados de solicitud. Polyspace Access: identifique defectos de codificación, revise resultados de análisis estáticos, y supervise métricas de calidad de software. Requirements Toolbox: vincule los requisitos con el código y las pruebas de MATLAB; formalice y valide los requisitos. Risk Management Toolbox: realice cálculos de pérdidas de crédito lifetime esperadas (ELS) en el nivel de cartera o activo individual. Robotics System Toolbox: genere escenarios cuboides y simule lecturas de sensores para aplicaciones de robótica. Signal Processing Toolbox: utilice flujos de trabajo de IA para preprocesar, extraer características y etiquetar señales. Simulink Check: cree comprobaciones en tiempo de edición personalizadas y justifique infracciones de Model Advisor. Simulink Real-Time: soporte de plataformas Linux para equipos de desarrollo. Requisitos de Sistema: Sistema Operativo: Windows 11, Windows 10 (version 1909 o superior). Windows Server 2019. Nota: Windows 7 is no longer supported Windows Server 2016 is no longer supported Procesador: Mínimo: Any Intel or AMD x86-64 processor. Recomendad0 Any Intel or AMD x86-64 processor with four logical cores and AVX2 instruction set support. Disco: Mínimo: 3,6 GB de espacio en disco solo para MATLAB, 5-8 GB para una instalación típica Recomendado: Se recomienda un SSD Una instalación completa de todos los productos de MathWorks puede ocupar hasta 31,5 GB de espacio en disco. RAM: Mínimo: 4GB Recomendado: 8GB Para Polyspace, se recomiendan 4 GB por núcleo. Descargar desde UPLOADED - RAPIDGATOR - SEND - UP-4EVER https://justpaste.it/892tz Para descomprimir el archivo debes usar el Winrar v6.11 https://justpaste.it/9lq47 Si los enlaces están muertos solo avísame respondiendo en el tema y lo soluciono. Siempre estoy suscrito a mis aportes.
×
×
  • Create New...