Jump to content

chacarita

Warianos
  • Posts

    185
  • Joined

  • Last visited

Información Personal

  • Pais
    Argentina
  • Genero
    Hombre

chacarita's Achievements

Newbie

Newbie (1/14)

0

Reputation

  1. Agregado el capitulo 14. Mañana o pasado les dejo los subtitulos. Saludos.
  2. Agregado el capitulo 14. Mañana o pasado les dejo los subtitulos. Saludos.
  3. La verdad esta ultima semana se me hizo imposible subir algo a mega. Intente subirlo ni bien salio pero el hosting no funcionaba bien, volví a hacer el intento repetidas veces entre ayer y hoy pero no conseguí subirlo. Lastima porque estos últimos 2 días tuve bastante tiempo por los feriados seguidos en mi país. En un par de horas pruebo otra vez haber si tengo suerte. Pero decidi no subir ninguna serie mas por ahora a MEGA hasta que salga de la version beta. Estoy esperando a que el jdownloader saque un plugin para el hosting wupfile.com para empezar a subir un par de series mas en 1080p (game of thrones y quizás hannibal), por ahora me parece un buen reemplazo momentáneo a MEGA ya que con un par de pruebas que hice descarga a 10 megas por segundo siendo user free y ademas no te borran los archivos por inactividad ni tampoco tiene limite de alojamiento. Saludos y gracias por comentar.
  4. Jajaja, es verdad me equivoque y puse los de la serie the following. Disculpa es que como no tengo mucho tiempo y también tenia que actualizar mis otros aportes porque los tenia algo abandonados se me mezclaron los links de los subs. Arreglados y mejorados ya que los subs los volví a subir por otros de mejor calidad. Al fin me pude poner al día con el post, voy a ser lo posible para actualizarlo lo antes posible luego de que salga el próximo capitulo. Gracias por el aviso, cualquier otra cosa que veas mal no dejes de avisarme que me ayuda a mantener activo y prolijo el post. Saludos.
  5. Touch Temporada 2 1080p WEB-DL DD5.1 H.264 Sinopsis En el centro de la historia está Martin Bohm (Kiefer Sutherland), un padre soltero atormentado por no poder conectar con su hijo de 10 años Jake (David Mazouz), autista. Cuidadoso e inteligente, Martin ha intentado todo para llegar a su hijo, que muestra pocas emociones y nunca se deja tocar por nadie. Todo cambiará cuando Jake descubra que tiene la habilidad de ver cosas que nadie ve, los patrones que conectan a todo el mundo. Datos de ripeo Capturas Links MEGA: Capitulo 1: Event Horizon Touch.S02E01.Event.Horizon.1080p.WEB-DL.DD5.1.H.264-ECI https://mega.co.nz/#!bFElUbwI!VrG82noH6w_7er0Rr96-d8fnWoO6LbPAw2wXbiyacLs Capitulo 2: Closer Touch.S02E02.Closer.1080p.WEB-DL.DD5.1.H.264-ECI https://mega.co.nz/#!LRcAVKqB!AC2JZwIozT4n8-pADO52wepYgwqUPCUy5In8-bYxAK0 Capitulo 3: Enemy of My Enemy Touch.S02E03.Enemy.Of.My.Enemy.1080p.WEB-DL.DD5.1.H.264-ECI https://mega.co.nz/#!3BclybaQ!TKtNeiVdVmyy3tS9H5ACAjLJw6WffDIBFhCtLLFukMs Capitulo 4: Perfect Storm Touch.S02E04.Perfect.Storm.1080p.WEB-DL.DD5.1.H.264-ECI https://mega.co.nz/#!GVEFhYbB!WIfY7uBbptMnqwCtf0X5gIhmkEdGLGbz50cTNPebcaECapitulo 5: Eye To Eye Touch.S02E05.Eye.To.Eye.1080p.WEB-DL.DD5.1.H.264-ECI https://mega.co.nz/#!WUgj3QJR!CKW-P1e4bWE9gAk-12JlRDo8ZGbNBclPc_8st837Ejo Capitulo 6: Broken Touch.S02E06.Broken.1080p.WEB-DL.DD5.1.H.264-ECI https://mega.co.nz/#!fRpklbIZ!t5KRRmQ8vfaEyK-dTUJatyAtFbvABVmLWcaHzMInqGk Capitulo 7: Ghosts Touch.S02E07.Ghosts.1080p.WEB-DL.DD5.1.H.264-ECI https://mega.co.nz/#!mRJDQTLa!1AEOKVwbLabP-fF0sD_-AB4XC2DxM06mnAnp99pNaiA Capitulo 8: Reunions Touch.S02E08.Reunions.1080p.WEB-DL.DD5.1.H.264-ECI https://mega.co.nz/#!LdQiFJrY!ehjzAa0Lv-kaSJVopsLkgeEw8o3Lylwb_l3U9q_BsqQ Capitulo 9: Clockwork Touch.S02E09.Clockwork.1080p.WEB.DL.DD5.1.H.264.ECI https://mega.co.nz/#!md4BTRKI!IiNL57VkkyqLVszF89Fhaq2F0Dqyd_HupJbONlGQLfM Capitulo 10: Two Of A Kind Touch.S02E10.Two.Of.A.Kind.1080p.WEB-DL.DD5.1.H.264-ECI https://mega.co.nz/#!vd9DATBI!WU9cCkTnl2L2RplhSfjrK9xI8LVgXsHOQQG0W6rdgoU Capitulo 11: Accused Touch.S02E11.1080p.WEB.DL.DD5.1.H.264.ECI https://mega.co.nz/#!qclCUKDb!LuaI7yK4cyOlNi84-WHPStxvW8h-JVZ63Z2xyd9Waiw Capitulo 12: Fight Or Flight Touch.S02E12.Fight.Or.Flight.1080p.WEB-DL.DD5.1.H.264-ECI https://mega.co.nz/#!HdwD0CIB!XLNEOMP2yOjDwe01QfP_VP9fn8eUJdcv4VG-i1P9rds Capitulo 13: Leviathan Touch.S02E13.Leviathan.1080p.WEB-DL.DD5.1.H.264-ECI https://mega.co.nz/#!uVIlXaiK!qrspE89JUsUFFx-qYR9r3kt5lmQLXM4-dombGrDvq-I Subtitulos: Capitulos 1 a 5: https://mega.co.nz/#!aRA0gbYb!E0fByRmpj2okcGsIqnkLo38JzKk7QBt-GljRM7b3990 Capitulos 6 y 7: https://mega.co.nz/#!LYwmyLII!XFHifxhXryPidotxVhM22Qh_SxR3pko2oCz03GZwWBo Capitulos 8 y 9: https://mega.co.nz/#!zRIlQJDC!YdWqZQYyk6XJmQYxyasHZFx_Jvwsir4m1im5mvwIPvE Capitulo 10: https://mega.co.nz/#!DUwwiYTB!EIljM2TFItolu1xFS40XBURdI8pRpOwCCuewV1oRid0 Capitulo 11: https://mega.co.nz/#!XNxXlQjQ!L98zsEHhvPOs8xG16FeiHEa6todKafoNhWA6OokQ09s Capitulo 12: https://mega.co.nz/#!PMgmiDDS!CR7hjECQCj61jCgmT4bNqhOlUQwueBh9nIVas0A67sw
  6. Agregado el capitulo 10. Perdón por la demora es que hoy se me complico un poco el día. Saludos.
  7. The Following Temporada 1 1080p WEB-DL DD5.1 H.264 Sinopsis Un thriller protagonizado por Kevin Bacon y James Purefoy (Roma). El primero es un agente del FBI encargado de detener a un asesino en serie, que tiene la capacidad de poder comunicarse con otros asesinos en serie para tejer una compleja red de asesinatos y criminales que podrá las cosas más difíciles al equipo liderado por Bacon. Datos de ripeo [NFO]Format : MatroskaFormat version : Version 4 / Version 2File size : 1.73 GiBDuration : 45mn 38sOverall bit rate : 5 424 KbpsEncoded date : UTC 2013-01-22 18:54:56Writing application : mkvmerge v6.0.0 ('Coming Up For Air') built on Jan 20 2013 09:52:00Writing library : libebml v1.3.0 + libmatroska v1.4.0 VideoID : 1Format : AVCFormat/Info : Advanced Video CodecFormat profile : [email protected] settings, CABAC : YesFormat settings, ReFrames : 4 framesCodec ID : V_MPEG4/ISO/AVCDuration : 45mn 38sBit rate : 4 932 KbpsWidth : 1 920 pixelsHeight : 1 080 pixelsDisplay aspect ratio : 16:9Frame rate mode : ConstantFrame rate : 23.976 fpsColor space : YUVChroma subsampling : 4:2:0Bit depth : 8 bitsScan type : ProgressiveBits/(Pixel*Frame) : 0.099Stream size : 1.57 GiB (91%)Language : EnglishDefault : YesForced : NoColor primaries : BT.709Transfer characteristics : BT.709Matrix coefficients : BT.709 AudioID : 2Format : AC-3Format/Info : Audio Coding 3Mode extension : CM (complete main)Format settings, Endianness : BigCodec ID : A_AC3Duration : 45mn 38sBit rate mode : ConstantBit rate : 384 KbpsChannel(s) : 6 channelsChannel positions : Front: L C R, Side: L R, LFESampling rate : 48.0 KHzBit depth : 16 bitsCompression mode : LossyStream size : 125 MiB (7%)Language : EnglishDefault : YesForced : No TextID : 3Format : UTF-8Codec ID : S_TEXT/UTF8Codec ID/Info : UTF-8 Plain TextDefault : YesForced : No[/NFO] Capturas Links MEGA: Capitulo 1: Pilot The.Following.S01E01.1080p.WEB-DL.DD5.1.H.264-KiNGS https://mega.co.nz/#!4whEwShZ!1RYwE-cn5N0NtvTXhtXA7VTgngRUc4u43UfJPO35ONw Capitulo 2: Chapter Two The.Following.S01E02.1080p.WEB-DL.DD5.1.H.264-KiNGS https://mega.co.nz/#!5sw3wBSJ!oGDzHzNW2oZKb2Wk8NLk9TQrMD_0DsvwB8bxMDUZx1w Capitulo 3: The Poet's Fire The.Following.S01E03.1080p.WEB-DL.DD5.1.H.264-KiNGS https://mega.co.nz/#!Zx4SHDqC!mjrgtht9og6BfCRdCcQDcfIeBI9pIrLg35DW97NOSAo Capitulo 4: Mad Love The.Following.S01E04.1080p.WEB.DL.DD5.1.H.264.KiNGS https://mega.co.nz/#!08hBzA7L!gOpXz66WIUxGqVe7FvGiRSY4LIdpPBBUGSgj5p4k5S4 Capitulo 5: The Siege The.Following.S01E05.1080p.WEB.DL.DD5.1.H.264.KiNGS https://mega.co.nz/#!WQlDVCxZ!dw3NJ3e_j9gtcBMv_Ql4UBDKqdKFwEvN29Dn6pUPEBQ Subtitulos: Capitulo 5: The Siege The.Following.S01E05.1080p.WEB.DL.DD5.1.H.264.KiNGS https://mega.co.nz/#!WQlDVCxZ!dw3NJ3e_j9gtcBMv_Ql4UBDKqdKFwEvN29Dn6pUPEBQCapitulo 6: The Fall The.Following.S01E06.1080p.WEB.DL.DD5.1.H.264.KiNGS https://mega.co.nz/#!HMMX0TQa!hIpuJ170N8iBjlR6CDvEEF_od6jKoHefw1jHPkn5M88 Capitulo 7: Let Me Go The.Following.S01E07.1080p.WEB.DL.DD5.1.H.264.KiNGS https://mega.co.nz/#!GdgAxSAB!ptwNrCsxc0RhiSS7FgldqDBIUVeYkF7kceOJGkuuzxk Capitulo 8: Welcome Home The.Following.S01E08.1080p.WEB.DL.DD5.1.H.264.KiNGS https://mega.co.nz/#!GAo2CYKa!S5FDuA74J9Bw89LlZ3iqPik1VcS4hYDxYJiYRXEqDIc Capitulo 9: Love Hurts The.Following.S01E09.1080p.WEB.DL.DD5.1.H.264.KiNGS https://mega.co.nz/#!vJp2FbIL!RUtq-OAdHNswFrqQZlSq-zCsxMXdRa47w-E8tM8yvl8 Capitulo 10: Guilt The.Following.S01E10.1080p.WEB.DL.DD5.1.H.264.KiNGS https://mega.co.nz/#!zFZFAQqa!q4wc0FJXXBgyaJTh87Jmn9Zb8vu3QW7AOjuob0kStk8Capitulo 11: Whips & Regret The.Following.S01E11.1080p.WEB.DL.DD5.1.H.264.KiNGS https://mega.co.nz/#!aE1SwCbS!ITwIvobLEmdU4ROdwxqe-UU2Sl8rUSEBac1JQpH90Xg Capitulo 12: The Curse The.Following.S01E12.1080p.WEB.DL.DD5.1.H.264.KiNGS https://mega.co.nz/#!yQoUmB4L!k4-l8g1yN6VVcDMH0GFS8eEZniuNitpQcH56PU2Ig9A Capitulo 13: Havenport The.Following.S01E13.1080p.WEB.DL.DD5.1.H.264.KiNGS https://mega.co.nz/#!jZBSlYRK!ffxSIf-zNkPkSzQSrTkbUHJm5cpB-DHSiscSnACngpoCapitulo 14: The End is Near The.Following.S01E14.1080p.WEB.DL.DD5.1.H.264.KiNGS https://mega.co.nz/#!yFUG1S6L!gyp7Jufr8HNEPAwnkLCwz6rL9tVmRkXVsfDdXh36lBcCapitulo 15: The Final Chapter The.Following.S01E15.1080p.WEB.DL.DD5.1.H.264.KiNGS https://mega.co.nz/#!fQAgBbwT!LPwktJVhbWQi8LYpfDUAKZRRwYHNnLeaAxehyScoX4Y Subtitulos: https://mega.co.nz/#!PQRCWCaA!fOvLFX-lonGpvIRdNmLvKQuM22J1-FP4kOgq7l_luaE
  8. The Walking Dead Temporada 3 1080p WEB-DL DD5.1 H.264 Sinopsis Después del accidentado y letal escape de la granja Rick y su gente están en el bosque temiendo a los errantes, pero un lugar promisorio, una cárcel, yace tras las colinas… ¿será el refugio que estaban buscando? ¿Y la espadachina con los zombies de mascota, Michone, será de ayuda al grupo? Datos de ripeo [NFO]Format : MatroskaFormat version : Version 4 / Version 2File size : 1.73 GiBDuration : 43mn 3sOverall bit rate : 5 764 Kbps VideoFormat : AVCDuration : 43mn 3sWidth : 1 920 pixelsHeight : 1 080 pixelsDisplay aspect ratio : 16:9Frame rate mode : ConstantFrame rate : 23.976 fps Audio #1Format : AC-3Duration : 43mn 3sBit rate mode : ConstantBit rate : 384 KbpsChannel(s) : 6 channelsChannel positions : Front: L C R, Side: L R, LFESampling rate : 48.0 KHzBit depth : 16 bitsCompression mode : LossyStream size : 118 MiB (7%)Title : AC3 5.1Language : English Audio #2Format : AACDuration : 43mn 3sChannel(s) : 2 channelsChannel positions : Front: L RSampling rate : 48.0 KHzCompression mode : LossyTitle : AAC 2.0Language : English TextCodec ID/Info : UTF-8 Plain TextTitle : EnglishLanguage : English[/NFO] Capturas Links MEGA: Capitulo 1: Seed The.Walking.Dead.S03E01.Seed.1080p.WEB-DL.DD5.1.H.264-BTN https://mega.co.nz/#!J4YjiYDD!goA3e3EIjf-YfeoisRYz9N4lfz6ZMB6PtrBvwJJLjtk Capitulo 2: Sick The.Walking.Dead.S03E02.Sick.1080p.WEB-DL.DD5.1.H.264-BTN https://mega.co.nz/#!AswnzL6A!YX0rp3y4dI8SzzR0b14kTUss9XcjYGsSvgftU0N1K6k Capitulo 3: Walk with Me The.Walking.Dead.S03E03.Walk.With.Me.1080p.WEB-DL.DD5.1.H.264-BTN https://mega.co.nz/#!4wJDVb6T!HaGUvQZM3kPdLkBK3iBopmsR-DY4Zio35YABHEAny8U Capitulo 4: Killer Within The.Walking.Dead.S03E04.Killer.Within.1080p.WEB.DL.DD5.1.H.264.BTN https://mega.co.nz/#!QkAynARK!vy3CwP50kJrDmpzqVezaNGYh8wkAgV0Budkp8NHVk34 Capitulo 5: Say the Word The.Walking.Dead.S03E05.Say.the.Word.1080p.WEB.DL.DD5.1.H.264.BTN https://mega.co.nz/#!Ulh3GB6Y!DJocRLv7Fs4nWmXsSO6nZ6HquhS96mkOYVIK4dzivew Capitulo 6: Hounded The.Walking.Dead.S03E06.Hounded.1080p.WEB.DL.DD5.1.H.264.BTN https://mega.co.nz/#!NsgTHBLT!mf_aqJLi2EzuXnFy66LeefhxzvImuZXYm2zi7EnfVDA Capitulo 7: When the Dead Come Knocking The.Walking.Dead.S03E07.When.the.Dead.Come.Knocking.1080p.WEB.DL.DD5.1.H.264.BTN https://mega.co.nz/#!wshnhLwb!Z7L9iehMUZCQFcNm74H4xHoLLBsXZF1EKiTq1zAVRDs Capitulo 8: Made to Suffer The.Walking.Dead.S03E08.Made.to.Suffer.1080p.WEB.DL.DD5.1.H.264.BTN https://mega.co.nz/#!8hRVmbja!GAahdij94F4G7u67zroXGfY1BxRyaF0to0_k8LJiFpE Capitulo 9: The Suicide King The.Walking.Dead.S03E09.The.Suicide.King.1080p.WEB.DL.DD5.1.H.264.BTN https://mega.co.nz/#!E0w30bgA!CeXcz2NM0DsT92y_CXw3ieIczZUVb-BcHroaSGJ3wJo Capitulo 10: Home The.Walking.Dead.S03E10.Home.PROPER.1080p.WEB-DL.DD5.1.H.264-BTN https://mega.co.nz/#!yctmnDZL!O30UXOexkMFWz_IaeS7LprhleoI7JGl8XWudrPAiGI0 Capitulo 11: I Ain't A Judas The.Walking.Dead.S03E11.I.Aint.a.Judas.1080p.WEB-DL.DD5.1.H.264-BTN https://mega.co.nz/#!mQFiSIjR!_n5MufXj0Umy2bMMl1L85DvszCquYOoYdIVUUTCpKhwCapitulo 12: Clear The.Walking.Dead.S03E12.Clear.1080p.WEB-DL.DD5.1.H.264-BTN https://mega.co.nz/#!yB5AWawT!0tGEz2BZm0X3IJiZiJtWfNIQUmAyVSQfoZPV5_bRE48 Capitulo 13: Arrow on the Doorpost The.Walking.Dead.S03E13.Arrow.on.the.Doorpost.1080p.WEB-DL.DD5.1.H.264-BTN https://mega.co.nz/#!WVRGUL6C!1czD_z6FQDzLunEQ99VIAJSEtLtlYjzCxCxcDrZ3yjc Capitulo 14: Prey The.Walking.Dead.S03E14.Prey.1080p.WEB-DL.DD5.1.H.264-BTN https://mega.co.nz/#!3AojmZAa!XGSLGm_M5I63NR55xOf19usC5MHCi15ddXJDer80qIE Capitulo 15: This Sorrowful Life The.Walking.Dead.S03E15.This.Sorrowful.Life.1080p.WEB-DL.DD5.1.H.264-BTN https://mega.co.nz/#!bY40GLYA!RPe7Jf3ZqiUOuMGh8qveW4MCjkZm14aD33nNh95lqzICapitulo 16: Welcome to the Tombs The.Walking.Dead.S03E16.Welcome.to.the.Tombs.1080p.WEB.DL.DD5.1.H.264.BTN https://mega.co.nz/#!qEsFUDwY!sKbUQPUfkQhPY-X-Nnjf83ebGKFpnUYM9dZg7vpnYEs Subtitulos: https://mega.co.nz/#!6BwBQbrZ!KC5TH0mNbfcE6hGsT3g3BgHEc_FuYatzJZ2DW1ngEpY
  9. Arrow Temporada 1 1080p WEB-DL DD5.1 H.264 Sinopsis Después de un violento naufragio y tras haber desaparecido y creído muerto durante cinco años, el multimillonario playboy Oliver Queen es rescatado con vida en una isla del pacífico. De vuelta en casa en Starling City, Oliver es recibido por su madre, su hermana y su mejor amigo, quienes rápidamente notan que la terrible experiencia sufrida lo ha cambiado. Por otra parte, Oliver trata de ocultar la verdad acerca de en quién se ha convertido mientras trata de enmedar los errores que cometió en el pasado y de reconciliarse con su ex novia, Laurel Lance. Mientras Oliver trata de volver a contactar a las personas de su pasado jugando el papel del mujeriego adinerado, despreocupado y descuidado que solía ser, ayudado por su fiel chofer y guardaespaldas John Diggle, crea en secreto el personaje de Green Arrow, un vigilante que lucha contra los males de la sociedad tratando de darle a su ciudad la gloria que antes tenía; complicando esta misión, se encuentra el Detective Lance, el padre Laurel, quien está decidido a poner al vigilante tras las rejas. Datos de ripeo [NFO]Format : MatroskaFormat version : Version 4 / Version 2File size : 1.54 GiBDuration : 42mn 31sOverall bit rate : 5 179 KbpsMovie name : Arrow.S01E14.The.Odyssey.1080p.WEB.DL.DD5.1.H.264.BS.mkv 9114Encoded date : UTC 2013-02-14 18:58:28Writing application : mkvmerge v6.0.0 ('Coming Up For Air') built on Jan 20 2013 09:52:00Writing library : libebml v1.3.0 + libmatroska v1.4.0 VideoID : 1Format : AVCFormat/Info : Advanced Video CodecFormat profile : [email protected] settings, CABAC : YesFormat settings, ReFrames : 4 framesCodec ID : V_MPEG4/ISO/AVCDuration : 42mn 31sBit rate : 4 692 KbpsWidth : 1 920 pixelsHeight : 1 080 pixelsDisplay aspect ratio : 16:9Frame rate : 23.976 fpsColor space : YUVChroma subsampling : 4:2:0Bit depth : 8 bitsScan type : ProgressiveBits/(Pixel*Frame) : 0.094Stream size : 1.39 GiB (91%)Language : EnglishDefault : YesForced : NoColor primaries : BT.709-5, BT.1361, IEC 61966-2-4, SMPTE RP177Transfer characteristics : BT.709-5, BT.1361Matrix coefficients : BT.709-5, BT.1361, IEC 61966-2-4 709, SMPTE RP177 AudioID : 2Format : AC-3Format/Info : Audio Coding 3Mode extension : CM (complete main)Format settings, Endianness : BigCodec ID : A_AC3Duration : 42mn 31sBit rate mode : ConstantBit rate : 384 KbpsChannel(s) : 6 channelsChannel positions : Front: L C R, Side: L R, LFESampling rate : 48.0 KHzBit depth : 16 bitsCompression mode : LossyStream size : 117 MiB (7%)Language : EnglishDefault : YesForced : No TextID : 3Format : UTF-8Codec ID : S_TEXT/UTF8Codec ID/Info : UTF-8 Plain TextTitle : CCLanguage : EnglishDefault : YesForced : No[/NFO] Capturas Links MEGA: Capitulo 1: Pilot Arrow.S01E01.Pilot.1080p.WEB.DL.DD5.1.H.264.ECI https://mega.co.nz/#!1lJUTJLL!eae4MWa_9jhasErP68d0JbuJ2hVaS8HzSPFCrs7W_JI Capitulo 2: Honor Thy Father Arrow.S01E02.Honor.Thy.Father.1080p.WEB.DL.DD5.1.H.264.TB https://mega.co.nz/#!pghmUIbK!2ITBjdyxEoOcIB8PgNZ7BpCpc9uBUI99-O-hleQRDfI Capitulo 3: Lone Gunmen Arrow.S01E03.Lone.Gunman.1080p.WEB.DL.DD5.1.H.264.TB https://mega.co.nz/#!YgIEVaIa!AxSJxILRfA80_EkAm3i4U3h9bUfHRbBgsE-ngSwtU_0 Capitulo 4: An Innocent Man Arrow.S01E04.An Innocent Man.1080p.WEB-DL.DD5.1.H.264-TB https://mega.co.nz/#!IlBXgLLY!pTSqPW_jfYRjoP-AsMItBay5aLURokZFth1IrEf_wDc Capitulo 5: Damaged Arrow.S01E05.Damaged.1080p.WEB.DL.DD5.1.H.264.TB https://mega.co.nz/#!UwB1haZS!aaCb1bQEkGBGBsOjrgZS133Hy5CLyo2IiIlaIgIW66Y Capitulo 6: Legacies Arrow.S01E06.Legacies.1080p.WEB-DL.DD5.1.H.264-TB https://mega.co.nz/#!8pQjjD6Z!gkFfO_sLi5vlvPdYPhjm3hkKEFW2BsduKZAqWFkACfA Capitulo 7: Muse Of Fire Arrow.S01E07.Muse.of.Fire.1080p.WEB-DL.DD5.1.H.264-BS https://mega.co.nz/#!9xBAAAIR!Hl2Au5xkH8Eb5CX0HV3pE8Ge3BY5oijIh0gXokCCxDI Capitulo 8: Vendetta Arrow.S01E08.Vendetta.1080p.WEB-DL.DD5.1.H.264-TB https://mega.co.nz/#!lgQH1DLa!LfNicU7zcj1oginc3gkyFYg-o5-1mpgQ-osmP77WTHU Capitulo 9: Year's End Arrow.S01E09.YearsEnd.1080p.WEB-DL.DD5.1.H.264-TB https://mega.co.nz/#!F55T2JTI!xd9T7xyoUf6M4jqY5IDbJj0z4RsY0v_cE6l2QTzk-QI Capitulo 10: Burned Arrow.S01E10.Burned.1080p.WEB-DL.DD5.1.H.264-TB https://mega.co.nz/#!Z4wBSKIA!-xH5CYW3oRc39IQ-cI2dzQbF6FYGCd0x_vhity5Y9Wg Capitulo 11: Trust But Verify Arrow.S01E11.Trust.But.Verify.1080p.WEB.DL.DD5.1.H.264-TB https://mega.co.nz/#!Qwg1VI7T!ygv36ADdq2PQh83KMkpPryz6D2E5DEAHF4ZVbr7fAy8 Capitulo 12: Vertigo Arrow.S01E12.Vertigo.1080p.WEB-DL.DD5.1.H.264-TB https://mega.co.nz/#!R5wGxQwL!LIrboA4Xbwi44rgLgPCYDNyN7ZmPDd1ajsmOimrT1rQ Capitulo 13: Betrayal Arrow.S01E13.Betrayal.1080p.WEB-DL.DD5.1.H.264-TB https://mega.co.nz/#!9kYGXZ5J!JhWhjXZCgDPKY1kZlh0_0CesOq7tbrvnuqnukxlMd-A Capitulo 14: The Odyssey Arrow.S01E14.The.Odyssey.1080p.WEB.DL.DD5.1.H.264.BS https://mega.co.nz/#!GVMknbYR!02qfcBx9wuaw8hob4eJmTr2CT3IL0M3DE9sxDRed-WQ Capitulo 15: Dodger Arrow.S01E15.Dodger.1080p.WEB.DL.DD5.1.H.264.BS https://mega.co.nz/#!icdyhBxL!rhYQVceU_vAth_4L-Wbss32M2LKB2cfMjX44xpguJJc Capitulo 16: Dead to Rights Arrow.S01E16.Dead.To.Rights.1080p.WEB-DL.DD5.1.H.264-BS https://mega.co.nz/#!XJFgRQIZ!usQ5piD97oZwDeSSf6yvydnlB4vjpcmyxWbcx1GzqJU Capitulo 17: The Huntress Returns Arrow.S01E17.The.Huntress.Returns.1080p.WEB-DL.DD5.1.H.264-BS https://mega.co.nz/#!LY5DTTJA!hxcGC4inhSQtb61myJpwgvBbMj8-atZEcdUH4UUEsCQ Capitulo 18: Salvation Arrow.S01E18.Salvation.1080p.WEB-DL.DD5.1.H.264-BS https://mega.co.nz/#!ydAzGYrL!w2yV-NG1gTotzpzMjdhwX3RBKQPTgrsFekGGqaK_fncCapitulo 19: Unfinished Business Arrow.S01E19.Unfinished.Business.1080p.WEB-DL.DD5.1.H.264-BS https://mega.co.nz/#!6B1TnQTR!xQgq3O8j_8RNCTr2mwUKbGVIBoFZWGBQwCbZlzYtaWYCapitulo 20: Home Invasion Arrow.S01E20.Home.Invasion.1080p.WEB-DL.DD5.1.H.264-BS https://mega.co.nz/#!CAEEHQYb!4mR_2qD0x_7AGfuNhk3FiyY72z5wLSOwK4L28Gxu8TsCapitulo 21: The Undertaking Arrow.S01E21.The.Undertaking.1080p.WEB-DL.DD5.1.H.264-BS https://mega.co.nz/#!3JJxXLjZ!ecKVpOpy1t5LSgh-ruMBuxesi_R55SM45XZO1KZeJ3k Capitulo 22: Darkness on the Edge of Town Arrow.S01E22.Darkness.on.the.Edge.of.Town.1080p.WEB.DL.DD5.1.H.264.BS https://mega.co.nz/#!LNoTmKAJ!Li60wiZsIxo0wcgGCpk9wtWzg0HGtSHZCNgcpzTd77E Subtitulos: Capitulos 1 a 13: https://mega.co.nz/#!WEEQgSyC!JiFkukmq9pUPzntd9wrMHktg6VdPNBBIF-dqK-tNB80 Capitulo 14: https://mega.co.nz/#!6FtSHbYD!MpDkpnHkTxvZyS3iy5AOVEh3uG8mWlwsylFlDsEUd0g Capitulo 15: http://www.subtitulos.es/arrow/1x15 Capitulo 16: http://www.subtitulos.es/arrow/1x16 Capitulo 17: http://www.subdivx.com/bajar.php?id=324631&u=7 Capitulo 18: http://www.subdivx.com/bajar.php?id=325567&u=7 Capitulo 19: http://www.subdivx.com/bajar.php?id=326852&u=7 Capitulo 20: http://www.subdivx.com/bajar.php?id=329588&u=7 Capitulo 21: http://www.subdivx.com/bajar.php?id=330308&u=7 Capitulo 22: http://www.subdivx.com/bajar.php?id=331495&u=7
  10. Nikita Season 3 1080p WEB-DL DD5.1 H.264 Sinopsis La historia se centra en una ficticia rama secreta de la CIA, conocida como la Division, que entrena a asesinos jovenes. Por lo general selecciona a jovenes metidos en problemas, a menudo en la carcel y condenados a muerte. Despues de identificar candidatos prometedores para la Division, falsifican su muerte y les ofrecen una nueva vida. Los nuevos reclutas deben aprender a apagar sus emociones para convertirse en asesinos eficientes.Nikita fue la unica recluta que logro escapar y ahora regresa para destruirlos... Datos de ripeo [NFO]Format : MatroskaFormat version : Version 4 / Version 2File size : 1.57 GiBDuration : 41mn 29sOverall bit rate : 5 422 KbpsEncoded date : UTC 2013-02-14 07:32:08Writing application : mkvmerge v6.0.0 ('Coming Up For Air') built on Jan 20 2013 09:52:00Writing library : libebml v1.3.0 + libmatroska v1.4.0 VideoID : 1Format : AVCFormat/Info : Advanced Video CodecFormat profile : [email protected] settings, CABAC : YesFormat settings, ReFrames : 4 framesCodec ID : V_MPEG4/ISO/AVCDuration : 41mn 29sBit rate : 4 930 KbpsWidth : 1 920 pixelsHeight : 1 080 pixelsDisplay aspect ratio : 16:9Frame rate : 23.976 fpsColor space : YUVChroma subsampling : 4:2:0Bit depth : 8 bitsScan type : ProgressiveBits/(Pixel*Frame) : 0.099Stream size : 1.43 GiB (91%)Language : EnglishDefault : YesForced : NoColor primaries : BT.709-5, BT.1361, IEC 61966-2-4, SMPTE RP177Transfer characteristics : BT.709-5, BT.1361Matrix coefficients : BT.709-5, BT.1361, IEC 61966-2-4 709, SMPTE RP177 AudioID : 2Format : AC-3Format/Info : Audio Coding 3Mode extension : CM (complete main)Format settings, Endianness : BigCodec ID : A_AC3Duration : 41mn 29sBit rate mode : ConstantBit rate : 384 KbpsChannel(s) : 6 channelsChannel positions : Front: L C R, Side: L R, LFESampling rate : 48.0 KHzBit depth : 16 bitsCompression mode : LossyStream size : 114 MiB (7%)Language : EnglishDefault : YesForced : No TextID : 3Format : UTF-8Codec ID : S_TEXT/UTF8Codec ID/Info : UTF-8 Plain TextDefault : YesForced : No[/NFO] Capturas Links MEGA: Capitulo 1: 3.0 Nikita.S03E01.1080p.WEB-DL.DD5.1.H.264-KiNGS https://mega.co.nz/#!7Q9AXBwJ!U-WPTt9wHEAoREEkb5y6nUMAiRkX7m7btQ2_DuGqTw4 Capitulo 2: Innocence Nikita.S03E02.1080p.WEB-DL.DD5.1.H.264-KiNGS https://mega.co.nz/#!woxiUSgK!A2FQxoqyc4-6YMJe79DoXGjIscIMwYYzBjMjhantH1w Capitulo 3: True Believer Nikita.S03E03.1080p.WEB-DL.DD5.1.H.264-KiNGS https://mega.co.nz/#!RtQA2ZrI!t1s9IrP605ezuyg-0P4oo27jgwQZEIDStRCj8CR02cY Capitulo 4: Consequences Nikita.S03E04.1080p.WEB-DL.DD5.1.H.264-KiNGS https://mega.co.nz/#!bcNnEbJS!cXrkxa2Ilo6hhkzBP0PmofBHgx69dyER6Tmzqi4wuAI Capitulo 5: The Sword's Edge Nikita.S03E05.1080p.WEB-DL.DD5.1.H.264-KiNGS https://mega.co.nz/#!p9IVkIba!XTUVTpIKhF1ihRNeYmyfOqQr95H4QCu80_8M3H5z_Yk Capitulo 6: Sideswipe Nikita.S03E06.1080p.WEB-DL.DD5.1.H.264-KiNGS https://mega.co.nz/#!hkYXiKRI!qiqTC7VXzazxlhukpLK-ERFvV7evHaiLBLGIhVXvD7s Capitulo 7: Intersection Nikita.S03E07.1080p.WEB-DL.DD5.1.H.264-KiNGS https://mega.co.nz/#!YkIAFTTb!3v_UqUsSgyMX3h2Hhr5sw8J2VlkWI5eGQ_Rg0o8kJOo Capitulo 8: Aftermath Nikita.S03E08.1080p.WEB-DL.DD5.1.H.264-KiNGS https://mega.co.nz/#!IggSVZ4S!4Na7FFYfIqb98Pq_ZCXlqo706PCPWCk85GWCyOWmheA Capitulo 9: Survival Instincts Nikita.S03E09.1080p.WEB-DL.DD5.1.H.264-KiNGS https://mega.co.nz/#!QlBw1LyR!apgVy4HzSsaBc7oKW4E1DWSv-RnIiuRl22gUbthD-QM Capitulo 10: Brave New World Nikita.S03E10.1080p.WEB-DL.DD5.1.H.264-KiNGS https://mega.co.nz/#!0lQ0DK4C!bC9DMup3shCZanZtRLtp8w5Nh2uQqlECP0VWEdEvtgQ Capitulo 11: Black Badge Nikita.S03E11.1080p.WEB-DL.DD5.1.H.264-KiNGS https://mega.co.nz/#!3c0FEIya!vHGnjivXq4z8Gws-38UOpqVbf34L5qsVz4VJKK94czQCapitulo 12: With Fire Nikita.S03E12.1080p.WEB-DL.DD5.1.H.264-KiNGS https://mega.co.nz/#!eEcgHIyb!Uiu7aumpgQPOtpPTb_fSgQwROvvyadpvnRZbfkboEUc Capitulo 13: Reunion Nikita.S03E13.1080p.WEB-DL.DD5.1.H.264-KiNGS https://mega.co.nz/#!yVQQBTzL!05tT_Zn_Jf0xzJBvQFgBCTdVHkRC6R7ushXR9IvZN0k Capitulo 14: The Life We've Chosen Nikita.S03E14.1080p.WEB-DL.DD5.1.H.264-KiNGS https://mega.co.nz/#!2JBDHYwZ!ZFuYhP4ubKIDeU0ZNmS4qio7bRrdhdkjqpx9YoOA_Mo Capitulo 15: Inevitability Nikita.S03E15.1080p.WEB-DL.DD5.1.H.264-KiNGS https://mega.co.nz/#!mJ4BiAZL!1Ozy8VuAx9yaifzXnrNNBF49zHomZh7C3ORwPdl-HtoCapitulo 16: Tipping Point Nikita.S03E16.1080p.WEB-DL.DD5.1.H.264-KiNGS https://mega.co.nz/#!bEdx1RDD!nYuEfCmBp3VXTfvQI-OW0VL4tO1iMPE_YTGaakqg828 Capitulo 17: Masks Nikita.S03E17.1080p.WEB-DL.DD5.1.H.264-KiNGS https://mega.co.nz/#!2BlhhDZQ!UfHRqGyQ8xDNh1f5yQEtaAe9DK4wLKSeJNBU2rwsx2ACapitulo 18: Broken Home Nikita.S03E18.1080p.WEB-DL.DD5.1.H.264-KiNGS https://mega.co.nz/#!eUhXnBZI!T5AxwjBUe8e6hqVjkzc8z4AD7y8yqZR1Cbun5JmjYjwCapitulo 19: Self-Destruct Nikita.S03E19.1080p.WEB-DL.DD5.1.H.264-KiNGS https://mega.co.nz/#!KB0SxYoa!nvB4RAko5KEbPZUpuYv6TqiwoTmG-6vEMprBcviIpVkCapitulo 20: High-Value Target Nikita.S03E20.1080p.WEB-DL.DD5.1.H.264-KiNGS https://mega.co.nz/#!vZQmnYoD!eU1qxqc683WbTHcwhAxs9Rv31plgKYnprUVrqH5Pm7Y Subtitulos: Capitulos 1 a 10: https://mega.co.nz/#!7EMASTAb!DCgz62y1o5SfI8xtzsEfMgjhklBsLV847RogZY_CUV0 Capitulo 11: https://mega.co.nz/#!zd0kWbQQ!AQa33k4Fnd1L0heSoyDsr24m9fxzm7pefSNYc4YeldE Capitulo 12: https://mega.co.nz/#!KFxAXQRL!Zu4e7ASzhiKPOuM-SdCAUgPyGMNTc5QTp-jciR4VPGE Capitulo 13: https://mega.co.nz/#!vUhwhQ4R!HmEfzEgBLXp03vA96LithFGLhxce9aaNF59CY4CfXVM Capitulo 14: https://mega.co.nz/#!PVoExZAa!P-nIb1vPLRgq9AdAbn_QTnZwydh06RnLLpJ4qC1HcsY Capitulos 15 a 17: https://mega.co.nz/#!SQIwzT5Y!djjBVyZk1TzoDXTy2gAWTFCPpF5TrYX66VYaFoMmpL4 Capitulo 18: https://mega.co.nz/#!2IxEWA7D!GVYjBlyaL-ta_m-HxhKJpjr3Y8dsj1ymFtzGxZPZUWo Capitulo 19: http://www.subtitulos.es/nikita/3x19 Capitulo 20: http://www.subtitulos.es/nikita/3x20
  11. Agregado el capitulo 11. Para descargarlo recuerden usar el jdownloader. Pronto los subtitulos. Saludos.
×
×
  • Create New...