Jump to content

cadagoto

Warianos
  • Posts

    3,044
  • Joined

  • Last visited

  • Days Won

    1

Everything posted by cadagoto

  1. Dragon Ball Z: La Batalla de los Dioses BDRip 720p Audio LATiNO 5.1/Japonés DTS Sub Esp [2013][Animación] Ficha Técnica TÍTULO ORIGINAL: Doragon Bôru Zetto: Kami to Kami (Dragon Ball Z: Battle of Gods) OTROS TÍTULOS: Dragon Ball Z: La Batalla de los Dioses / ドラゴンボールZ 神と神 AÑO: 2013 PAÍS: Japón DURACIÓN: 85 min. DIRECTOR: Masahiro Hosoda REPARTO: Animation GUIÓN: Yûsuke Watanabe (Cómic: Akira Toriyama) MÚSICA: Norihito Sumitomo FOTOGRAFÍA: Animation PRODUCTORA: Toei Animation GÉNERO: Animación. Ciencia ficción. Acción. Artes marciales. Dragon Ball. Manga FECHA DE ESTRENO JAPÓN: 30 de marzo de 2013 FECHA DE ESTRENO ARGENTINA: 26 de septiembre de 2013 FECHA DE ESTRENO PERÚ: 26 de septiembre de 2013 Sinopsis La historia se sitúa varios años después de la batalla con Majin Buu. Bils, el Dios de la destrucción que mantenía el equilibrio del universo, se ha despertado de un largo sueño. Al escuchar rumores sobre un saiyajin que ha vencido a Freezer, Bils parte a la búsqueda de Goku. Emocionado por el hecho de que haya aparecido un oponente tan poderoso tras tanto tiempo, Goku ignora las advertencias de Kaito y decide enfrentarse a él. Datos Técnicos General Format : Matroska Format version : Version 2 File size : 3.18 GiB Duration : 1h 25mn Overall bit rate : 5 341 Kbps Movie name : CadagotoHD. Encoded date : UTC 2014-01-16 21:56:48 Writing application : mkvmerge v3.4.0 ('Rapunzel') built on May 15 2010 09:38:20 Writing library : libebml v0.8.0 + libmatroska v0.9.0 Video ID : 1 Format : AVC Format/Info : Advanced Video Codec Format profile : [email protected] Format settings, CABAC : Yes Format settings, ReFrames : 9 frames Codec ID : V_MPEG4/ISO/AVC Duration : 1h 25mn Bit rate : 2 701 Kbps Width : 1 280 pixels Height : 720 pixels Display aspect ratio : 16:9 Frame rate mode : Constant Frame rate : 23.976 fps Color space : YUV Chroma subsampling : 4:2:0 Bit depth : 8 bits Scan type : Progressive Bits/(Pixel*Frame) : 0.122 Stream size : 1.61 GiB (51%) Title : CadagotoHD Writing library : x264 core 133 r2334+704+50 a7549b7 tMod [[email protected]:2:0 X86_64] Encoding settings : cabac=1 / ref=9 / deblock=1:0:0 / analyse=0x3:0x113 / me=umh / subme=10 / psy=1 / fade_compensate=0.00 / psy_rd=0.95:0.00 / mixed_ref=1 / me_range=32 / chroma_me=1 / trellis=2 / 8x8dct=1 / cqm=0 / deadzone=21,11 / fast_pskip=1 / chroma_qp_offset=-2 / threads=16 / lookahead_threads=1 / sliced_threads=0 / nr=0 / decimate=1 / interlaced=0 / bluray_compat=0 / constrained_intra=0 / fgo=0 / bframes=3 / b_pyramid=2 / b_adapt=1 / b_bias=0 / direct=3 / weightb=1 / open_gop=0 / weightp=2 / keyint=240 / keyint_min=23 / scenecut=40 / intra_refresh=0 / rc_lookahead=50 / rc=crf / mbtree=1 / crf=15.0000 / qcomp=0.70 / qpmin=0 / qpmax=69 / qpstep=4 / vbv_maxrate=50000 / vbv_bufsize=50000 / crf_max=0.0 / nal_hrd=none / ip_ratio=1.40 / aq=2:0.80 / aq-sensitivity=10.00 / aq-factor=1.00:1.00:1.00 / aq2=0 / aq3=0 Language : English Default : No Forced : No Audio #1 ID : 2 Format : AC-3 Format/Info : Audio Coding 3 Mode extension : CM (complete main) Format settings, Endianness : Big Codec ID : A_AC3 Duration : 1h 25mn Bit rate mode : Constant Bit rate : 384 Kbps Channel(s) : 6 channels Channel positions : Front: L C R, Side: L R, LFE Sampling rate : 48.0 KHz Bit depth : 16 bits Compression mode : Lossy Delay relative to video : 24ms Stream size : 234 MiB (7%) Title : CadagotoHD - Audio Español Latino AC3 5.1 640 Kbps Language : Spanish Default : Yes Forced : Yes Audio #2 ID : 3 Format : AC-3 Format/Info : Audio Coding 3 Mode extension : CM (complete main) Format settings, Endianness : Big Codec ID : A_AC3 Duration : 1h 25mn Bit rate mode : Constant Bit rate : 640 Kbps Channel(s) : 6 channels Channel positions : Front: L C R, Side: L R, LFE Sampling rate : 48.0 KHz Bit depth : 16 bits Compression mode : Lossy Stream size : 390 MiB (12%) Title : CadagotoHD - Audio Ingles AC3 5.1 640 Kbps Language : Japanese Default : No Forced : No Audio #3 ID : 4 Format : DTS Format/Info : Digital Theater Systems Mode : 16 Format settings, Endianness : Big Codec ID : A_DTS Duration : 1h 25mn Bit rate mode : Constant Bit rate : 1 510 Kbps Channel(s) : 6 channels Channel positions : Front: L C R, Side: L R, LFE Sampling rate : 48.0 KHz Bit depth : 24 bits Compression mode : Lossy Delay relative to video : 11ms Stream size : 919 MiB (28%) Title : CadagotoHD - Audio Japones DTS 1509 Kbps Language : Japanese Default : No Forced : No Text #1 ID : 5 Format : UTF-8 Codec ID : S_TEXT/UTF8 Codec ID/Info : UTF-8 Plain Text Language : Spanish Default : Yes Forced : Yes Text #2 ID : 6 Format : UTF-8 Codec ID : S_TEXT/UTF8 Codec ID/Info : UTF-8 Plain Text Title : CadagotoHD - Subtitulos Español Latino Completos Language : Spanish Default : No Forced : No Menu 00:00:00.000 : en:00:00:00.000 00:06:39.316 : en:00:06:39.316 00:13:16.421 : en:00:13:16.421 00:18:38.868 : en:00:18:38.868 00:21:10.728 : en:00:21:10.728 00:26:54.988 : en:00:26:54.988 00:31:57.207 : en:00:31:57.207 00:37:32.375 : en:00:37:32.375 00:42:46.189 : en:00:42:46.189 00:52:00.534 : en:00:52:00.534 01:01:10.625 : en:01:01:10.625 01:07:49.023 : en:01:07:49.023 01:12:05.530 : en:01:12:05.530 01:18:00.509 : en:01:18:00.509 01:21:33.514 : en:01:21:33.514 Descargar Enlaces De FreakShare AQUI http://s2l.biz/vormizmxl9q Utiliza los Archivos .REV si tienes problema con 1,2,3 archivos en su descarga , Esté off o corruptos Si necesitas 2 archivos , Bajas 2 REV y los reconstruirán Cualquiera que fuesen los que te falten !
  2. Quedo a la spera de una respuesta! Saludos y muchas gracias! Hola debes borrar el archivo 27 de tu pc descargar los archivos REV y meterlos en la misma carpeta luego doble click al primer archivo REV te preguntara si deseas reconstruir archivo , le das que si deberia reconstruir el archivo que te falta saludos
  3. Capitán Phillips BDRip 720p Audio Español LATiNO 5.1/Ingles DTS Sub Esp [2013][Thriller] Ficha Técnica Captain Phillips / Capitán Phillips Año: 2013 Duración: 135 min. País: Estados Unidos Director: Paul Greengrass Guión: Billy Ray (Libro: Richard Phillips, Stephan Talty) Música: Henry Jackman Fotografía: Barry Ackroyd Reparto: Tom Hanks, Barkhad Abdi, Mahat M. Ali, Barkhad Abdirahman, Faysal Ahmed, Michael Chernus, Catherine Keener, David Warshofsky, Corey Johnson, Chris Mulkey, Max Martini, Yul Vazquez, Omar Berdouni Productora: Columbia Pictures / Michael De Luca Productions / Scott Rudin Productions / Trigger Street Productions Género: Aventuras. Thriller. Drama | Aventuras marinas. Basado en hechos reales. África. Secuestros / Desapariciones. Piratas Premios 2013: Globos de Oro: 4 nominaciones, incluyendo mejor película y director 2013: Critics Choice: 6 nominaciones, incluyendo Mejor película 2013: American Film Institute: Top 10 - Mejores películas del año 2013: Satellite Awards: 5 nominaciones, incluyendo mejor película y director Sinopsis En el año 2009, en aguas internacionales a 145 millas de la costa de Somalia, en el cuerno de África, el buque carguero Maersk Alabama, al mando del capitán de la marina mercante estadounidense, Richard Phillips (Tom Hanks), fue abordado y retenido por piratas somalíes, siendo el primer barco norteamericano secuestrado en los últimos doscientos años Datos Técnicos General Format : Matroska Format version : Version 2 File size : 6.06 GiB Duration : 2h 14mn Overall bit rate : 6 475 Kbps Movie name : CadagotoHD Encoded date : UTC 2014-01-09 07:08:20 Writing application : mkvmerge v3.4.0 ('Rapunzel') built on May 15 2010 09:38:20 Writing library : libebml v0.8.0 + libmatroska v0.9.0 Video ID : 1 Format : AVC Format/Info : Advanced Video Codec Format profile : [email protected] Format settings, CABAC : Yes Format settings, ReFrames : 5 frames Codec ID : V_MPEG4/ISO/AVC Duration : 2h 14mn Bit rate : 4 325 Kbps Width : 1 280 pixels Height : 536 pixels Display aspect ratio : 2.40:1 Frame rate mode : Constant Frame rate : 23.976 fps Color space : YUV Chroma subsampling : 4:2:0 Bit depth : 8 bits Scan type : Progressive Bits/(Pixel*Frame) : 0.263 Stream size : 3.93 GiB (65%) Title : CadagotoHD Writing library : x264 core 140 r2377 1ca7bb9 Encoding settings : cabac=1 / ref=5 / deblock=1:-3:-3 / analyse=0x3:0x113 / me=umh / subme=8 / psy=1 / psy_rd=1.00:0.00 / mixed_ref=1 / me_range=16 / chroma_me=1 / trellis=1 / 8x8dct=1 / cqm=0 / deadzone=21,11 / fast_pskip=1 / chroma_qp_offset=-2 / threads=18 / lookahead_threads=3 / sliced_threads=0 / nr=0 / decimate=1 / interlaced=0 / bluray_compat=0 / constrained_intra=0 / bframes=3 / b_pyramid=2 / b_adapt=2 / b_bias=0 / direct=3 / weightb=1 / open_gop=0 / weightp=2 / keyint=240 / keyint_min=24 / scenecut=40 / intra_refresh=0 / rc_lookahead=50 / rc=2pass / mbtree=1 / bitrate=4325 / ratetol=1.0 / qcomp=0.60 / qpmin=0 / qpmax=69 / qpstep=4 / cplxblur=20.0 / qblur=0.5 / ip_ratio=1.40 / aq=1:1.00 Language : English Default : No Forced : No Audio #1 ID : 2 Format : AC-3 Format/Info : Audio Coding 3 Mode extension : CM (complete main) Format settings, Endianness : Big Codec ID : A_AC3 Duration : 2h 14mn Bit rate mode : Constant Bit rate : 640 Kbps Channel(s) : 6 channels Channel positions : Front: L C R, Side: L R, LFE Sampling rate : 48.0 KHz Bit depth : 16 bits Compression mode : Lossy Stream size : 614 MiB (10%) Title : CadagotoHD - Audio Español Latino AC3 5.1 640 Kbps Language : Spanish Default : No Forced : Yes Audio #2 ID : 3 Format : DTS Format/Info : Digital Theater Systems Mode : 16 Format settings, Endianness : Big Codec ID : A_DTS Duration : 2h 14mn Bit rate mode : Constant Bit rate : 1 509 Kbps Channel(s) : 6 channels Channel positions : Front: L C R, Side: L R, LFE Sampling rate : 48.0 KHz Bit depth : 24 bits Compression mode : Lossy Delay relative to video : 11ms Stream size : 1.41 GiB (23%) Title : CadagotoHD - Audio Ingles DTS 1509 Kbps Language : English Default : Yes Forced : No Text #1 ID : 4 Format : UTF-8 Codec ID : S_TEXT/UTF8 Codec ID/Info : UTF-8 Plain Text Language : Spanish Default : Yes Forced : Yes Text #2 ID : 5 Format : UTF-8 Codec ID : S_TEXT/UTF8 Codec ID/Info : UTF-8 Plain Text Title : CadagotoHD - Subtitulos Español Latino Completos Language : Spanish Default : No Forced : No Menu 00:00:00.000 : en:00:00:00.000 00:09:12.927 : en:00:09:12.927 00:15:30.138 : en:00:15:30.138 00:22:48.742 : en:00:22:48.742 00:30:11.435 : en:00:30:11.435 00:39:38.876 : en:00:39:38.876 00:48:01.003 : en:00:48:01.003 00:58:24.751 : en:00:58:24.751 01:04:36.539 : en:01:04:36.539 01:13:02.837 : en:01:13:02.837 01:19:14.249 : en:01:19:14.249 01:25:41.261 : en:01:25:41.261 01:34:14.023 : en:01:34:14.023 01:41:44.598 : en:01:41:44.598 01:51:32.102 : en:01:51:32.102 02:02:38.851 : en:02:02:38.851 Descargar Enlaces De FreakShare AQUI http://s2l.biz/mrfz8zmvx8vo Utiliza los Archivos .REV si tienes problema con 1,2,3 archivos en su descarga , Esté off o corruptos Si necesitas 2 archivos , Bajas 2 REV y los reconstruirán Cualquiera que fuesen los que te falten !
  4. Lluvia de Hamburguesas 2: La Venganza de las Sobras BDRip 720p Audio Español LATiNO 5.1/Ingles DTS Sub Esp [2013][Animación] Ficha Técnica Cloudy with a Chance of Meatballs 2 Lluvia de Hamburguesas 2: La Venganza de las Sobras Año: 2013 Duración: 95 min. País: Estados Unidos Director: Cody Cameron, Kris Pearn Guión: John Francis Daley, Jonathan M. Goldstein (Personajes: Judi Barrett, Ron Barrett) Música: Mark Mothersbaugh Fotografía: Animation Reparto: Animation Productora: Sony Pictures Animation / Sony Pictures Imageworks (SPI) / Columbia Pictures Género: Animación. Comedia. Fantástico. Aventuras | Animales. Secuela. 3-D Sinopsis "Lluvia de Albóndigas 2" empieza exactamente donde terminaba la primera parte. El genio del inventor Flint Lockwoods acaba siendo reconocido por su ídolo Chester V, que lo invita a unirse a la The Live Corp Company, donde los inventores más brillantes del mundo crean nuevas tecnologías para el bienestar de la humanidad. La mano derecha de Chester es Barb: una orangutana dotada de un cerebro humano altamente evolucionado que le permite ser muy retorcida y manipuladora. El sueño de Flint cambia cuando descubre que la máquina de su invención, destinada a convertir el agua en alimentos, ha pasado a crear híbridos de animales-comida. Para salvar a la humanidad, Chester envía a Flint y a sus colegas a una peligrosa misión, que los llevará a enfrentarse a tacocodrilos, gambancés, quesoarañas con doble de bacon y otras criaturas igualmente extravagantes. Datos Técnicos General Format : Matroska Format version : Version 2 File size : 4.62 GiB Duration : 1h 34mn Overall bit rate : 6 979 Kbps Movie name : CadagotoHD Encoded date : UTC 2014-01-11 06:44:49 Writing application : mkvmerge v3.4.0 ('Rapunzel') built on May 15 2010 09:38:20 Writing library : libebml v0.8.0 + libmatroska v0.9.0 Video ID : 1 Format : AVC Format/Info : Advanced Video Codec Format profile : [email protected] Format settings, CABAC : Yes Format settings, ReFrames : 5 frames Codec ID : V_MPEG4/ISO/AVC Duration : 1h 34mn Bit rate : 5 085 Kbps Width : 1 280 pixels Height : 536 pixels Display aspect ratio : 2.40:1 Frame rate mode : Constant Frame rate : 23.976 fps Color space : YUV Chroma subsampling : 4:2:0 Bit depth : 8 bits Scan type : Progressive Bits/(Pixel*Frame) : 0.309 Stream size : 3.28 GiB (71%) Title : CadagotoHD Writing library : x264 core 140 r2377 1ca7bb9 Encoding settings : cabac=1 / ref=5 / deblock=1:0:0 / analyse=0x3:0x133 / me=umh / subme=7 / psy=1 / psy_rd=1.00:0.00 / mixed_ref=1 / me_range=16 / chroma_me=1 / trellis=1 / 8x8dct=1 / cqm=0 / deadzone=21,11 / fast_pskip=0 / chroma_qp_offset=-2 / threads=36 / lookahead_threads=4 / sliced_threads=0 / nr=0 / decimate=1 / interlaced=0 / bluray_compat=0 / constrained_intra=0 / bframes=3 / b_pyramid=2 / b_adapt=1 / b_bias=0 / direct=1 / weightb=1 / open_gop=0 / weightp=2 / keyint=250 / keyint_min=23 / scenecut=40 / intra_refresh=0 / rc_lookahead=40 / rc=2pass / mbtree=1 / bitrate=5085 / ratetol=1.0 / qcomp=0.60 / qpmin=0 / qpmax=69 / qpstep=4 / cplxblur=20.0 / qblur=0.5 / ip_ratio=1.40 / aq=1:1.00 Language : English Default : No Forced : No Audio #1 ID : 2 Format : AC-3 Format/Info : Audio Coding 3 Mode extension : CM (complete main) Format settings, Endianness : Big Codec ID : A_AC3 Duration : 1h 34mn Bit rate mode : Constant Bit rate : 384 Kbps Channel(s) : 6 channels Channel positions : Front: L C R, Side: L R, LFE Sampling rate : 44.1 KHz Bit depth : 16 bits Compression mode : Lossy Stream size : 260 MiB (6%) Title : CadagotoHD - Audio Español Latino AC3 5.1 384 Kbps - DVD Language : Spanish Default : Yes Forced : Yes Audio #2 ID : 3 Format : DTS Format/Info : Digital Theater Systems Mode : 16 Format settings, Endianness : Big Codec ID : A_DTS Duration : 1h 34mn Bit rate mode : Constant Bit rate : 1 509 Kbps Channel(s) : 6 channels Channel positions : Front: L C R, Side: L R, LFE Sampling rate : 48.0 KHz Bit depth : 24 bits Compression mode : Lossy Delay relative to video : 11ms Stream size : 1 024 MiB (22%) Title : CadagotoHD - Audio Ingles DTS 1509 Kbps Language : English Default : No Forced : No Text #1 ID : 4 Format : UTF-8 Codec ID : S_TEXT/UTF8 Codec ID/Info : UTF-8 Plain Text Language : Spanish Default : Yes Forced : Yes Text #2 ID : 5 Format : UTF-8 Codec ID : S_TEXT/UTF8 Codec ID/Info : UTF-8 Plain Text Title : CadagotoHD - Subtitulos Español Latino Completos Language : Spanish Default : No Forced : No Menu 00:00:00.000 : en:00:00:00.000 00:07:12.015 : en:00:07:12.015 00:12:51.521 : en:00:12:51.521 00:18:50.421 : en:00:18:50.421 00:25:58.390 : en:00:25:58.390 00:31:57.082 : en:00:31:57.082 00:36:53.253 : en:00:36:53.253 00:39:28.908 : en:00:39:28.908 00:41:07.840 : en:00:41:07.840 00:45:28.017 : en:00:45:28.017 00:49:48.694 : en:00:49:48.694 00:54:41.403 : en:00:54:41.403 01:00:39.886 : en:01:00:39.886 01:06:47.921 : en:01:06:47.921 01:12:54.954 : en:01:12:54.954 01:21:25.589 : en:01:21:25.589 Descargar Enlaces De FreakShare AQUI http://s2l.biz/3e2z8zmer51 Utiliza los Archivos .REV si tienes problema con 1,2,3 archivos en su descarga , Esté off o corruptos Si necesitas 2 archivos , Bajas 2 REV y los reconstruirán Cualquiera que fuesen los que te falten !
  5. Actividad Poco Normal BDRip 720p Audio Español LATiNO 5.1/Ingles DTS Sub Esp [2013][Comedia] Ficha Técnica TÍTULO ORIGINAL: Ghost Team One OTROS TÍTULOS: Equipo paranormal (Actividad paranormal) / Actividad Poco Normal AÑO: 2013 PAÍS: USA DURACIÓN: 107 min. DIRECTOR: Ben Peyser, Scott Rutherford REPARTO: Carlos Santos, J.R. Villarreal, Tony Cavalero, Meghan Falcone, James Babson, Craig Stott, Scott MacArthur, Fernanda Romero GUIÓN: Andrew Knauer, Arthur Pielli MÚSICA: Mike Plas FOTOGRAFÍA: Ben Peyser PRODUCTORA: Hernany Perla Films / Flying Monkeys Entertainment GÉNERO: Comedia. Terror. Comedia de terror. Sobrenatural. Fantasmas FECHA DE ESTRENO USA: 20 de enero de 2013 Sinopsis Cuando los compañeros de cuarto Brad y Sergio accidentalmente despiertan a la muerte, forman equipo al lado de la sexy novata cazafantasmas, Fernanda. Justo cuando los chicos empezaban a acercarse a su compañera, descubren que un lujurioso demonio quiere entrar en acción. Ahora, las cámaras están listas y el temor aumenta en este escandaloso enredo que ha sido calificado como genuinamente hilarante, donde sólo una cosa es segura: alguien saldrá perdiendo. Datos Técnicos General Format : Matroska Format version : Version 2 File size : 4.54 GiB Duration : 1h 24mn Overall bit rate mode : Variable Overall bit rate : 7 721 Kbps Movie name : CadagotoHD Encoded date : UTC 2014-01-02 21:27:49 Writing application : mkvmerge v3.4.0 ('Rapunzel') built on May 15 2010 09:38:20 Writing library : libebml v0.8.0 + libmatroska v0.9.0 Video ID : 1 Format : AVC Format/Info : Advanced Video Codec Format profile : High [email protected] Format settings, CABAC : Yes Format settings, ReFrames : 3 frames Codec ID : V_MPEG4/ISO/AVC Duration : 1h 24mn Bit rate mode : Variable Bit rate : 5 419 Kbps Maximum bit rate : 14.0 Mbps Width : 1 280 pixels Height : 720 pixels Display aspect ratio : 16:9 Frame rate mode : Constant Frame rate : 23.976 fps Color space : YUV Chroma subsampling : 4:2:0 Bit depth : 10 bits Scan type : Progressive Bits/(Pixel*Frame) : 0.245 Stream size : 3.19 GiB (70%) Title : CadagotoHD Writing library : x264 core 132 r2309 3b1f1f7 Encoding settings : cabac=1 / ref=4 / deblock=1:-1:-1 / analyse=0x3:0x133 / me=umh / subme=9 / psy=1 / psy_rd=1.00:0.15 / mixed_ref=1 / me_range=16 / chroma_me=1 / trellis=2 / 8x8dct=1 / cqm=0 / deadzone=21,11 / fast_pskip=1 / chroma_qp_offset=-3 / threads=12 / lookahead_threads=1 / sliced_threads=0 / slices=4 / slices_max=4 / nr=0 / decimate=1 / interlaced=0 / bluray_compat=0 / constrained_intra=0 / bframes=3 / b_pyramid=1 / b_adapt=2 / b_bias=0 / direct=3 / weightb=1 / open_gop=0 / weightp=0 / keyint=23 / keyint_min=1 / scenecut=40 / intra_refresh=0 / rc_lookahead=24 / rc=crf / mbtree=1 / crf=17.0 / qcomp=0.60 / qpmin=10 / qpmax=51 / qpstep=4 / vbv_maxrate=14000 / vbv_bufsize=14500 / crf_max=0.0 / nal_hrd=vbr / ip_ratio=1.40 / aq=1:1.00 Language : English Default : No Forced : Yes Audio #1 ID : 2 Format : AC-3 Format/Info : Audio Coding 3 Mode extension : CM (complete main) Format settings, Endianness : Big Codec ID : A_AC3 Duration : 1h 24mn Bit rate mode : Constant Bit rate : 640 Kbps Channel count : 6 channels Channel positions : Front: L C R, Side: L R, LFE Sampling rate : 48.0 KHz Bit depth : 16 bits Compression mode : Lossy Stream size : 386 MiB (8%) Title : CadagotoHD - Audio Español Latino AC3 5.1 640 Kbps Language : Spanish Default : Yes Forced : Yes Audio #2 ID : 3 Format : DTS Format/Info : Digital Theater Systems Mode : 16 Format settings, Endianness : Big Codec ID : A_DTS Duration : 1h 24mn Bit rate mode : Constant Bit rate : 1 509 Kbps Channel count : 6 channels Channel positions : Front: L C R, Side: L R, LFE Sampling rate : 48.0 KHz Bit depth : 24 bits Compression mode : Lossy Delay relative to video : 11ms Stream size : 910 MiB (20%) Title : CadagotoHD - Audio Ingles DTS 1509 Kbps Language : English Default : No Forced : No Text #1 ID : 4 Format : UTF-8 Codec ID : S_TEXT/UTF8 Codec ID/Info : UTF-8 Plain Text Title : CadagotoHD - Subtitulos Español Latino Forzados Language : Spanish Default : Yes Forced : Yes Text #2 ID : 5 Format : UTF-8 Codec ID : S_TEXT/UTF8 Codec ID/Info : UTF-8 Plain Text Title : CadagotoHD - Subtitulos Español Latino Language : Spanish Default : No Forced : No Menu 00:00:00.000 : es:Capítulo 01 00:07:16.978 : es:Capítulo 02 00:15:39.688 : es:Capítulo 03 00:22:30.974 : es:Capítulo 04 00:29:09.456 : es:Capítulo 05 00:35:24.205 : es:Capítulo 06 00:39:05.176 : es:Capítulo 07 00:45:32.271 : es:Capítulo 08 00:53:21.656 : es:Capítulo 09 01:00:30.835 : es:Capítulo 10 01:07:37.887 : es:Capítulo 11 01:17:22.471 : es:Capítulo 12 Descargar Enlaces De FreakShare AQUI http://s2l.biz/md9ssymcr9q Utiliza los Archivos .REV si tienes problema con 1,2,3 archivos en su descarga , Esté off o corruptos Si necesitas 2 archivos , Bajas 2 REV y los reconstruirán Cualquiera que fuesen los que te falten !
  6. Traición al Límite (Paranoia) BDRip 720p Audio Español LATiNO 5.1/Ingles DTS Sub Esp [2013][Thriller] Ficha Técnica Paranoia / Traición al Límite Año 2013 Duración 106 min. País Estados Unidos Director Robert Luketic Guión Barry Levy (Novela: Joseph Finder) Fotografía David Tattersall Reparto Liam Hemsworth, Amber Heard, Harrison Ford, Gary Oldman, Embeth Davidtz, Josh Holloway Richard Dreyfuss, Julian McMahon, Lucas Till, Angela Sarafyan Productora Coproducción EEUU-Francia; Relativity Media / Gaumont / Demarest Films / EMJAG Productions Género Thriller. Drama | Espionaje Sinopsis Adam Cassidy (Liam Hemsworth) es un muchacho de 26 años que odia su empleo en su compañía tecnológica Wyatt Corporation. Cuando manipula el sistema para ayudar a un amigo, es acusado de un delito federal. Su empresa, a través de su jefe Nicholas Wyatt (Gary Oldman), le ofrece un trato para escapar de prisión: convertirse en espía industrial e infiltrarse en la compañía rival, propiedad de Jock Goddard (Harrison Ford), antiguo mentor de Wyatt. Adam acepta, y logra ascender rápidamente, descubriendo cualidades que jamás imaginó poseer. Ahora su vida es perfecta; adora su trabajo, tiene un Porsche y sale con la chica de sus sueños. Y todo lo que tiene que hacer es traicionar a los que le rodean. (FILMAFFINITY) Datos Técnicos General Format : Matroska Format version : Version 2 File size : 5.17 GiB Duration : 1h 46mn Overall bit rate : 6 980 Kbps Movie name : CadagotoHD Encoded date : UTC 2014-01-02 06:33:22 Writing application : mkvmerge v3.4.0 ('Rapunzel') built on May 15 2010 09:38:20 Writing library : libebml v0.8.0 + libmatroska v0.9.0 Video ID : 1 Format : AVC Format/Info : Advanced Video Codec Format profile : [email protected] Format settings, CABAC : Yes Format settings, ReFrames : 5 frames Codec ID : V_MPEG4/ISO/AVC Duration : 1h 46mn Bit rate : 4 383 Kbps Width : 1 280 pixels Height : 536 pixels Display aspect ratio : 2.40:1 Frame rate mode : Constant Frame rate : 23.976 fps Color space : YUV Chroma subsampling : 4:2:0 Bit depth : 8 bits Scan type : Progressive Bits/(Pixel*Frame) : 0.266 Stream size : 3.15 GiB (61%) Title : CadagotoHD Writing library : x264 core 140 r2377 1ca7bb9 Encoding settings : cabac=1 / ref=5 / deblock=1:0:0 / analyse=0x3:0x133 / me=umh / subme=7 / psy=1 / psy_rd=1.00:0.00 / mixed_ref=1 / me_range=16 / chroma_me=1 / trellis=1 / 8x8dct=1 / cqm=0 / deadzone=21,11 / fast_pskip=0 / chroma_qp_offset=-2 / threads=18 / lookahead_threads=3 / sliced_threads=0 / nr=0 / decimate=1 / interlaced=0 / bluray_compat=0 / constrained_intra=0 / bframes=3 / b_pyramid=2 / b_adapt=1 / b_bias=0 / direct=1 / weightb=1 / open_gop=0 / weightp=2 / keyint=250 / keyint_min=23 / scenecut=40 / intra_refresh=0 / rc_lookahead=40 / rc=2pass / mbtree=1 / bitrate=4383 / ratetol=1.0 / qcomp=0.60 / qpmin=0 / qpmax=69 / qpstep=4 / cplxblur=20.0 / qblur=0.5 / ip_ratio=1.40 / aq=1:1.00 Language : English Default : No Forced : No Audio #1 ID : 2 Format : AC-3 Format/Info : Audio Coding 3 Mode extension : CM (complete main) Format settings, Endianness : Big Codec ID : A_AC3 Duration : 1h 46mn Bit rate mode : Constant Bit rate : 448 Kbps Channel count : 6 channels Channel positions : Front: L C R, Side: L R, LFE Sampling rate : 48.0 KHz Bit depth : 16 bits Compression mode : Lossy Stream size : 340 MiB (6%) Title : CadagotoHD - Audio Español Latino AC3 5.1 448 Kbps Language : Spanish Default : No Forced : No Audio #2 ID : 3 Format : AC-3 Format/Info : Audio Coding 3 Mode extension : CM (complete main) Format settings, Endianness : Big Codec ID : A_AC3 Duration : 1h 46mn Bit rate mode : Constant Bit rate : 640 Kbps Channel count : 6 channels Channel positions : Front: L C R, Side: L R, LFE Sampling rate : 48.0 KHz Bit depth : 16 bits Compression mode : Lossy Stream size : 486 MiB (9%) Title : CadagotoHD - Audio Ingles AC3 5.1 640 Kbps Language : English Default : No Forced : No Audio #3 ID : 4 Format : DTS Format/Info : Digital Theater Systems Mode : 16 Format settings, Endianness : Big Codec ID : A_DTS Duration : 1h 46mn Bit rate mode : Constant Bit rate : 1 509 Kbps Channel count : 6 channels Channel positions : Front: L C R, Side: L R, LFE Sampling rate : 48.0 KHz Bit depth : 24 bits Compression mode : Lossy Delay relative to video : 11ms Stream size : 1.12 GiB (22%) Title : CadagotoHD - Audio Ingles DTS 1509 Kbps Language : English Default : No Forced : No Text #1 ID : 5 Format : UTF-8 Codec ID : S_TEXT/UTF8 Codec ID/Info : UTF-8 Plain Text Language : Spanish Default : Yes Forced : Yes Text #2 ID : 6 Format : UTF-8 Codec ID : S_TEXT/UTF8 Codec ID/Info : UTF-8 Plain Text Title : CadagotoHD - Subtitulos Español Latino Language : Spanish Default : No Forced : No Menu 00:00:00.000 : en:00:00:00.000 00:06:54.205 : en:00:06:54.205 00:10:31.840 : en:00:10:31.840 00:14:12.602 : en:00:14:12.602 00:17:02.396 : en:00:17:02.396 00:21:41.008 : en:00:21:41.008 00:26:29.922 : en:00:26:29.922 00:31:31.848 : en:00:31:31.848 00:36:47.580 : en:00:36:47.580 00:39:37.500 : en:00:39:37.500 00:46:08.933 : en:00:46:08.933 00:49:15.327 : en:00:49:15.327 00:54:37.900 : en:00:54:37.900 00:57:30.238 : en:00:57:30.238 00:59:16.511 : en:00:59:16.511 01:04:02.547 : en:01:04:02.547 01:06:58.431 : en:01:06:58.431 01:10:14.961 : en:01:10:14.961 01:19:23.759 : en:01:19:23.759 01:23:21.079 : en:01:23:21.079 01:27:37.502 : en:01:27:37.502 01:35:06.618 : en:01:35:06.618 01:37:53.367 : en:01:37:53.367 01:40:59.053 : en:01:40:59.053 Descargar Enlaces De FreakShare AQUI http://s2l.biz/bwb7sym43j7yy Utiliza los Archivos .REV si tienes problema con 1,2,3 archivos en su descarga , Esté off o corruptos Si necesitas 2 archivos , Bajas 2 REV y los reconstruirán Cualquiera que fuesen los que te falten !
  7. Man of Steel BDRip 720p Ingles AC3 5.1 + DTS Sub Esp LATiNO [2013][Acción] Ficha Técnica Título: El hombre de acero Título original: Man of Steel Dirección: Zack Snyder País: Canadá, Estados Unidos Año: 2013 Fecha de estreno: 21/06/2013 Duración: 148 min Género: Acción, Ciencia ficción, Fantástico Reparto: Henry Cavill, Russell Crowe, Amy Adams, Kevin Costner, Diane Lane, Michael Shannon, Christopher Meloni, Laurence Fishburne, Jadin Gould, Ayelet Zurer Guión: David S. Goyer Distribuidora: Warner Bros. Pictures Productora: Warner Bros. Pictures, Atlas Entertainment, Syncopy, Legendary Pictures, DC Entertainment, Third Act Productions Sinopsis Nueva película sobre los orígenes del superhéroe más famoso de todos los tiempos. Superman (Henry Cavill) nace en Krypton, un planeta que está a punto de desaparecer por culpa de un desequilibrio de elementos radioactivos. Su padre le envía a la Tierra para salvarle la vida, siendo adoptado por una humilde pareja de campesinos de Kansas (Kevin Costner y Diane Lane). El bebé es bautizado como Clark Kent; a ojos de la sociedad es un tímido periodista que intenta conquistar el corazón de la guapa Lois Lane (Amy Adams). Pero en realidad es un titán que se esfuerza por defender a los humanos de las implacables fuerzas del mal. Datos Técnicos General Format : Matroska Format version : Version 2 File size : 7.19 GiB Duration : 2h 23mn Overall bit rate : 7 197 Kbps Movie name : CadagotoHD Encoded date : UTC 2013-10-16 00:34:58 Writing application : mkvmerge v3.4.0 ('Rapunzel') built on May 15 2010 09:38:20 Writing library : libebml v0.8.0 + libmatroska v0.9.0 Video ID : 1 Format : AVC Format/Info : Advanced Video Codec Format profile : [email protected] Format settings, CABAC : Yes Format settings, ReFrames : 5 frames Codec ID : V_MPEG4/ISO/AVC Duration : 2h 23mn Bit rate : 5 048 Kbps Width : 1 280 pixels Height : 536 pixels Display aspect ratio : 2.40:1 Frame rate mode : Constant Frame rate : 23.976 fps Color space : YUV Chroma subsampling : 4:2:0 Bit depth : 8 bits Scan type : Progressive Bits/(Pixel*Frame) : 0.307 Stream size : 4.90 GiB (68%) Title : CadagotoHD Writing library : x264 core 138 r2358 9e941d1 Encoding settings : cabac=1 / ref=5 / deblock=1:0:0 / analyse=0x3:0x133 / me=umh / subme=8 / psy=1 / psy_rd=1.00:0.00 / mixed_ref=1 / me_range=16 / chroma_me=1 / trellis=1 / 8x8dct=1 / cqm=0 / deadzone=21,11 / fast_pskip=0 / chroma_qp_offset=-2 / threads=24 / lookahead_threads=4 / sliced_threads=0 / nr=0 / decimate=1 / interlaced=0 / bluray_compat=0 / constrained_intra=0 / bframes=3 / b_pyramid=2 / b_adapt=1 / b_bias=0 / direct=1 / weightb=1 / open_gop=0 / weightp=2 / keyint=250 / keyint_min=23 / scenecut=40 / intra_refresh=0 / rc=2pass / mbtree=0 / bitrate=5048 / ratetol=1.0 / qcomp=0.60 / qpmin=0 / qpmax=69 / qpstep=4 / cplxblur=20.0 / qblur=0.5 / ip_ratio=1.40 / pb_ratio=1.30 / aq=1:1.00 Language : English Default : No Forced : No Audio #1 ID : 2 Format : AC-3 Format/Info : Audio Coding 3 Mode extension : CM (complete main) Format settings, Endianness : Big Codec ID : A_AC3 Duration : 2h 23mn Bit rate mode : Constant Bit rate : 640 Kbps Channel count : 6 channels Channel positions : Front: L C R, Side: L R, LFE Sampling rate : 48.0 KHz Bit depth : 16 bits Compression mode : Lossy Stream size : 655 MiB (9%) Title : CadagotoHD - Audio Ingles AC3 5.1 640 Kbps Language : Spanish Default : No Forced : No Audio #2 ID : 3 Format : DTS Format/Info : Digital Theater Systems Mode : 16 Format settings, Endianness : Big Codec ID : A_DTS Duration : 2h 23mn Bit rate mode : Constant Bit rate : 1 509 Kbps Channel count : 6 channels Channel positions : Front: L C R, Side: L R, LFE Sampling rate : 48.0 KHz Bit depth : 24 bits Compression mode : Lossy Delay relative to video : 11ms Stream size : 1.51 GiB (21%) Title : CadagotoHD - Audio Ingles DTS 1509 Kbps Language : English Default : No Forced : No Text ID : 4 Format : UTF-8 Codec ID : S_TEXT/UTF8 Codec ID/Info : UTF-8 Plain Text Title : CadagotoHD - Subtitulos Español Latino Language : Spanish Default : Yes Forced : Yes Menu 00:00:00.000 : en:00:00:00.000 00:11:16.968 : en:00:11:16.968 00:20:01.450 : en:00:20:01.450 00:30:09.474 : en:00:30:09.474 00:39:21.609 : en:00:39:21.609 00:48:57.643 : en:00:48:57.643 00:59:03.415 : en:00:59:03.415 01:08:57.884 : en:01:08:57.884 01:17:35.109 : en:01:17:35.109 01:28:36.186 : en:01:28:36.186 01:40:47.792 : en:01:40:47.792 01:50:55.858 : en:01:50:55.858 02:00:53.580 : en:02:00:53.580 02:10:13.556 : en:02:10:13.556 02:12:49.920 : en:02:12:49.920 Descargar Enlaces De FreakShare AQUI http://s2l.biz/0xqpqumyqtau Utiliza los Archivos .REV si tienes problema con 1,2,3 archivos en su descarga , Esté off o corruptos Si necesitas 2 archivos , Bajas 2 REV y los reconstruirán Cualquiera que fuesen los que te falten !
  8. El Ataque : La caida de la Casa Blanca BDRip 720p Ingles AC3 5.1 + DTS Sub Esp LATiNO[2013][Terrorismo] Ficha Técnica White House Down Asalto al poder/ El Ataque/La caida de la Casa Blanca Año 2013 Duración131 min. País Estados Unidos Director Roland Emmerich GuiónJames Vanderbilt Música Harald Kloser, Thomas Wanker Fotografía Anna Foerster Reparto Channing Tatum, Maggie Gyllenhaal, Jamie Foxx, James Woods, Joey King, Richard Jenkins, Jason Clarke Lance Reddick, Falk Hentschel, Michael Murphy, Romano Orzari, Patrick Sabongui, Jackie Geary Productora Columbia Pictures / Iron Horse Entertainment / Mythology Entertainment Género Acción. Thriller | Terrorismo Sinopsis John Cale (Channing Tatum), un policía del Capitolio, ve rechazada su petición de entrar en el Servicio Secreto para proteger al Presidente de los Estados Unidos James Sawyer (Jamie Foxx). Para no decepcionar a su hija, la lleva a hacer un tour por la Casa Blanca. En ese momento, un comando paramilitar fuertemente armado asalta el edificio. Con el Gobierno de la nación sumido en el caos, Cale intentará salvar al Presidente, a su hija y al país. (FILMAFFINITY) Datos Técnicos General Format : Matroska Format version : Version 2 File size : 6.84 GiB Duration : 2h 11mn Overall bit rate : 7 446 Kbps Movie name : CadagotoHD Encoded date : UTC 2013-10-14 01:30:59 Writing application : mkvmerge v3.4.0 ('Rapunzel') built on May 15 2010 09:38:20 Writing library : libebml v0.8.0 + libmatroska v0.9.0 Video ID : 1 Format : AVC Format/Info : Advanced Video Codec Format profile : [email protected] Format settings, CABAC : Yes Format settings, ReFrames : 5 frames Codec ID : V_MPEG4/ISO/AVC Duration : 2h 11mn Bit rate : 5 149 Kbps Width : 1 280 pixels Height : 534 pixels Display aspect ratio : 2.40:1 Frame rate mode : Constant Frame rate : 23.976 fps Color space : YUV Chroma subsampling : 4:2:0 Bit depth : 8 bits Scan type : Progressive Bits/(Pixel*Frame) : 0.314 Stream size : 4.73 GiB (69%) Title : CadagotoHD Language : English Default : No Forced : No Audio #1 ID : 2 Format : AC-3 Format/Info : Audio Coding 3 Mode extension : CM (complete main) Format settings, Endianness : Big Codec ID : A_AC3 Duration : 2h 11mn Bit rate mode : Constant Bit rate : 640 Kbps Channel count : 6 channels Channel positions : Front: L C R, Side: L R, LFE Sampling rate : 48.0 KHz Bit depth : 16 bits Compression mode : Lossy Stream size : 602 MiB (9%) Title : CadagotoHD - Audio Ingles AC3 5.1 640 Kbps Language : English Default : No Forced : No Audio #2 ID : 3 Format : DTS Format/Info : Digital Theater Systems Mode : 16 Format settings, Endianness : Big Codec ID : A_DTS Duration : 2h 11mn Bit rate mode : Constant Bit rate : 1 509 Kbps Channel count : 6 channels Channel positions : Front: L C R, Side: L R, LFE Sampling rate : 48.0 KHz Bit depth : 24 bits Compression mode : Lossy Delay relative to video : 11ms Stream size : 1.39 GiB (20%) Title : CadagotoHD - Audio Ingles DTS 1509 Kbps Language : English Default : No Forced : No Text ID : 4 Format : UTF-8 Codec ID : S_TEXT/UTF8 Codec ID/Info : UTF-8 Plain Text Title : CadagotoHD - Subtitulos Español Latino Language : Spanish Default : Yes Forced : Yes Menu 00:00:00.000 : en:00:00:00.000 00:06:39.774 : en:00:06:39.774 00:15:18.835 : en:00:15:18.835 00:21:37.838 : en:00:21:37.838 00:30:10.809 : en:00:30:10.809 00:37:47.348 : en:00:37:47.348 00:45:51.207 : en:00:45:51.207 00:51:12.278 : en:00:51:12.278 00:59:55.133 : en:00:59:55.133 01:07:08.942 : en:01:07:08.942 01:14:42.853 : en:01:14:42.853 01:24:13.590 : en:01:24:13.590 01:29:53.805 : en:01:29:53.805 01:37:27.717 : en:01:37:27.717 01:44:36.562 : en:01:44:36.562 01:54:17.851 : en:01:54:17.851 Descargar Enlaces De FreakShare AQUI http://s2l.biz/n5g0num656rd Utiliza los Archivos .REV si tienes problema con 1,2,3 archivos en su descarga , Esté off o corruptos Si necesitas 2 archivos , Bajas 2 REV y los reconstruirán Cualquiera que fuesen los que te falten !
  9. El Llanero Solitario BDRip 720p Español LATiNO AC3 5.1/Ingles DTS Sub Esp [2013][Western] Ficha Técnica The Lone Ranger / El Llanero Solitario Año: 2013 Duración: 149 min. País: Estados Unidos Director: Gore Verbinski Guión: Justin Haythe, Ted Elliott, Terry Rossio Música: Hans Zimmer Fotografía: Bojan Bazelli Reparto: Armie Hammer, Johnny Depp, Tom Wilkinson, William Fichtner, Ruth Wilson, Helena Bonham Carter, James Badge Dale, Bryant Prince, Barry Pepper, Harry Treadaway, James Frain, Mason Elston Cook, Joaquín Cosío Productora: Walt Disney Pictures / Jerry Bruckheimer Films Género: Aventuras. Western. Acción | Trenes. Venganza Sinopsis Adaptación de las aventuras del héroe del serial radiofónico del mismo título. Un grupo de Rangers de Texas sufre el ataque de una banda de forajidos. Un indio llamado Toro encuentra al único superviviente, el Llanero Solitario. Desde entonces, el héroe, su caballo Silver y su nuevo ayudante Toro, recorren el estado para vengarse de los forajidos y hacer triunfar la justicia. Datos Técnicos General Format : Matroska Format version : Version 2 File size : 8.31 GiB Duration : 2h 29mn Overall bit rate : 7 952 Kbps Movie name : CadagotoHD Encoded date : UTC 2013-10-13 18:16:51 Writing application : mkvmerge v3.4.0 ('Rapunzel') built on May 15 2010 09:38:20 Writing library : libebml v0.8.0 + libmatroska v0.9.0 Attachment : Yes Video ID : 1 Format : AVC Format/Info : Advanced Video Codec Format profile : [email protected] Format settings, CABAC : Yes Format settings, ReFrames : 12 frames Codec ID : V_MPEG4/ISO/AVC Duration : 2h 29mn Bit rate : 6 000 Kbps Width : 1 280 pixels Height : 534 pixels Display aspect ratio : 2.40:1 Frame rate mode : Constant Frame rate : 23.976 fps Color space : YUV Chroma subsampling : 4:2:0 Bit depth : 8 bits Scan type : Progressive Bits/(Pixel*Frame) : 0.366 Stream size : 6.16 GiB (74%) Title : CadagotoHD Writing library : x264 core 132 r2323+704+51 d571b1c tMod [[email protected]:2:0 X86_64] Encoding settings : cabac=1 / ref=12 / deblock=1:-3:-3 / analyse=0x3:0x113 / me=umh / subme=11 / psy=1 / fade_compensate=0.00 / psy_rd=1.05:0.00 / mixed_ref=1 / me_range=32 / chroma_me=1 / trellis=2 / 8x8dct=1 / cqm=0 / deadzone=21,11 / fast_pskip=0 / chroma_qp_offset=-2 / threads=18 / lookahead_threads=2 / sliced_threads=0 / nr=0 / decimate=0 / interlaced=0 / bluray_compat=0 / constrained_intra=0 / fgo=0 / bframes=6 / b_pyramid=2 / b_adapt=2 / b_bias=0 / direct=3 / weightb=1 / open_gop=0 / weightp=2 / keyint=240 / keyint_min=24 / scenecut=40 / intra_refresh=0 / rc_lookahead=240 / rc=2pass / mbtree=1 / bitrate=6000 / ratetol=1.0 / qcomp=0.70 / qpmin=0 / qpmax=69 / qpstep=4 / cplxblur=20.0 / qblur=0.5 / ip_ratio=1.10 / aq=4:0.85 / aq-sensitivity=10.00 / aq-factor=1.00:1.00:1.00 / aq2=0 / aq3=0 Language : English Default : No Forced : No Audio #1 ID : 2 Format : AC-3 Format/Info : Audio Coding 3 Mode extension : CM (complete main) Format settings, Endianness : Big Codec ID : A_AC3 Duration : 2h 29mn Bit rate mode : Constant Bit rate : 384 Kbps Channel count : 6 channels Channel positions : Front: L C R, Side: L R, LFE Sampling rate : 48.0 KHz Bit depth : 16 bits Compression mode : Lossy Stream size : 411 MiB (5%) Title : CadagotoHD - Audio Español Latino AC3 5.1 384 Kbps Language : Spanish Default : No Forced : No Audio #2 ID : 3 Format : DTS Format/Info : Digital Theater Systems Mode : 16 Format settings, Endianness : Big Codec ID : A_DTS Duration : 2h 29mn Bit rate mode : Constant Bit rate : 1 509 Kbps Channel count : 6 channels Channel positions : Front: L C R, Side: L R, LFE Sampling rate : 48.0 KHz Bit depth : 24 bits Compression mode : Lossy Delay relative to video : 11ms Stream size : 1.58 GiB (19%) Title : CadagotoHD - Audio Ingles DTS 1509 Kbps Language : English Default : No Forced : No Text #1 ID : 4 Format : UTF-8 Codec ID : S_TEXT/UTF8 Codec ID/Info : UTF-8 Plain Text Language : Spanish Default : Yes Forced : Yes Text #2 ID : 5 Format : UTF-8 Codec ID : S_TEXT/UTF8 Codec ID/Info : UTF-8 Plain Text Title : CadagotoHD - Subtitulos Español Latino Language : Spanish Default : No Forced : No Menu 00:00:00.000 : en:00:00:00.000 00:08:16.121 : en:00:08:16.121 00:13:38.776 : en:00:13:38.776 00:24:51.407 : en:00:24:51.407 00:29:03.033 : en:00:29:03.033 00:32:05.841 : en:00:32:05.841 00:40:32.013 : en:00:40:32.013 00:45:29.644 : en:00:45:29.644 00:53:29.665 : en:00:53:29.665 01:01:05.662 : en:01:01:05.662 01:10:01.614 : en:01:10:01.614 01:16:12.318 : en:01:16:12.318 01:24:45.455 : en:01:24:45.455 01:28:39.731 : en:01:28:39.731 01:35:35.188 : en:01:35:35.188 01:41:13.985 : en:01:41:13.985 01:46:35.806 : en:01:46:35.806 01:50:02.179 : en:01:50:02.179 01:53:55.203 : en:01:53:55.203 01:56:15.260 : en:01:56:15.260 02:01:51.095 : en:02:01:51.095 02:12:07.211 : en:02:12:07.211 02:17:13.934 : en:02:17:13.934 02:20:20.287 : en:02:20:20.287 Descargar Enlaces De FreakShare AQUI http://s2l.biz/myvimum8gtsf Utiliza los Archivos .REV si tienes problema con 1,2,3 archivos en su descarga , Esté off o corruptos Si necesitas 2 archivos , Bajas 2 REV y los reconstruirán Cualquiera que fuesen los que te falten !
  10. Monsters University BDRip 720p Español LATiNO AC3 5.1/Ingles DTS Sub Esp [2013][Animación] Ficha Técnica Monsters University Año: 2013 Duración: 102 min. País: Estados Unidos Director: Dan Scanlon Guión: Robert L. Baird, Daniel Gerson, Dan Scanlon (Personajes: Andrew Stanton, Pete Docter) Música: Randy Newman Fotografía: Animation Reparto: Animation Productora: Pixar Animation Studios / Walt Disney Pictures Género: Animación. Fantástico. Comedia | Monstruos. Colegios & Universidad. Precuela. 3-D Sinopsis Mike Wazowski (Billy Crystal) y James P. Sullivan (John Goodman) son amigos inseparables, pero no fue siempre así. Cuando se conocieron en la Universidad, no se podían soportar, pero acabaron superando sus diferencias y se convirtieron en los mejores amigos. Precuela de la exitosa "Monstruos, S.A.". Datos Técnicos General Format : Matroska Format version : Version 2 File size : 7.00 GiB Duration : 1h 43mn Overall bit rate mode : Variable Overall bit rate : 9 651 Kbps Movie name : CadagotoHD Encoded date : UTC 2013-10-12 19:09:42 Writing application : mkvmerge v3.4.0 ('Rapunzel') built on May 15 2010 09:38:20 Writing library : libebml v0.8.0 + libmatroska v0.9.0 Video ID : 1 Format : AVC Format/Info : Advanced Video Codec Format profile : [email protected] Format settings, CABAC : Yes Format settings, ReFrames : 5 frames Codec ID : V_MPEG4/ISO/AVC Duration : 1h 43mn Nominal bit rate : 3 877 Kbps Width : 1 280 pixels Height : 720 pixels Display aspect ratio : 16:9 Frame rate mode : Constant Frame rate : 23.976 fps Color space : YUV Chroma subsampling : 4:2:0 Bit depth : 8 bits Scan type : Progressive Bits/(Pixel*Frame) : 0.175 Title : CadagotoHD Writing library : x264 core 138 r2358 9e941d1 Encoding settings : cabac=1 / ref=5 / deblock=1:0:0 / analyse=0x3:0x133 / me=umh / subme=7 / psy=1 / psy_rd=1.00:0.00 / mixed_ref=1 / me_range=16 / chroma_me=1 / trellis=1 / 8x8dct=1 / cqm=0 / deadzone=21,11 / fast_pskip=0 / chroma_qp_offset=-2 / threads=18 / lookahead_threads=3 / sliced_threads=0 / nr=0 / decimate=1 / interlaced=0 / bluray_compat=0 / constrained_intra=0 / bframes=3 / b_pyramid=2 / b_adapt=2 / b_bias=0 / direct=3 / weightb=1 / open_gop=0 / weightp=2 / keyint=250 / keyint_min=23 / scenecut=40 / intra_refresh=0 / rc_lookahead=50 / rc=2pass / mbtree=1 / bitrate=3877 / ratetol=1.0 / qcomp=0.60 / qpmin=0 / qpmax=69 / qpstep=4 / cplxblur=20.0 / qblur=0.5 / ip_ratio=1.40 / aq=1:1.00 Language : English Default : No Forced : No Audio #1 ID : 2 Format : AC-3 Format/Info : Audio Coding 3 Mode extension : CM (complete main) Format settings, Endianness : Big Codec ID : A_AC3 Duration : 1h 43mn Bit rate mode : Constant Bit rate : 640 Kbps Channel count : 6 channels Channel positions : Front: L C R, Side: L R, LFE Sampling rate : 48.0 KHz Bit depth : 16 bits Compression mode : Lossy Stream size : 475 MiB (7%) Title : CadagotoHD - Audio Español Latino AC3 5.1 640 Kbps Language : Spanish Default : Yes Forced : Yes Audio #2 ID : 3 Format : AC-3 Format/Info : Audio Coding 3 Mode extension : CM (complete main) Format settings, Endianness : Big Codec ID : A_AC3 Duration : 1h 43mn Bit rate mode : Constant Bit rate : 640 Kbps Channel count : 6 channels Channel positions : Front: L C R, Side: L R, LFE Sampling rate : 48.0 KHz Bit depth : 16 bits Compression mode : Lossy Stream size : 475 MiB (7%) Title : CadagotoHD - Audio Ingles AC3 5.1 640 Kbps Language : English Default : No Forced : No Audio #3 ID : 4 Format : TrueHD Codec ID : A_TRUEHD Duration : 1h 43mn Bit rate mode : Variable Maximum bit rate : 5 751 Kbps Channel count : 8 channels Channel positions : Front: L C R, Side: L R, Back: L R, LFE Sampling rate : 48.0 KHz Compression mode : Lossless Title : CadagotoHD - Audio Ingles TRUE-HD 5 751 Kbps Language : English Default : No Forced : No Text #1 ID : 5 Format : UTF-8 Codec ID : S_TEXT/UTF8 Codec ID/Info : UTF-8 Plain Text Language : Spanish Default : Yes Forced : Yes Text #2 ID : 6 Format : UTF-8 Codec ID : S_TEXT/UTF8 Codec ID/Info : UTF-8 Plain Text Title : CadagotoHD - Subtitulos Español Latino Language : Spanish Default : No Forced : No Menu 00:00:00.000 : en:00:00:00.000 00:06:26.720 : en:00:06:26.720 00:07:06.885 : en:00:07:06.885 00:10:54.112 : en:00:10:54.112 00:12:19.947 : en:00:12:19.947 00:16:09.969 : en:00:16:09.969 00:18:15.636 : en:00:18:15.636 00:19:37.593 : en:00:19:37.593 00:21:06.849 : en:00:21:06.849 00:23:43.630 : en:00:23:43.630 00:29:22.719 : en:00:29:22.719 00:30:39.462 : en:00:30:39.462 00:33:38.099 : en:00:33:38.099 00:36:30.980 : en:00:36:30.980 00:38:19.422 : en:00:38:19.422 00:39:22.568 : en:00:39:22.568 00:45:13.335 : en:00:45:13.335 00:47:14.831 : en:00:47:14.831 00:51:08.148 : en:00:51:08.148 00:55:21.192 : en:00:55:21.192 00:57:30.321 : en:00:57:30.321 01:01:42.239 : en:01:01:42.239 01:04:37.289 : en:01:04:37.289 01:07:33.006 : en:01:07:33.006 01:14:11.321 : en:01:14:11.321 01:18:07.849 : en:01:18:07.849 01:19:25.718 : en:01:19:25.718 01:23:53.402 : en:01:23:53.402 01:24:38.656 : en:01:24:38.656 01:28:00.232 : en:01:28:00.232 01:32:51.356 : en:01:32:51.356 01:34:24.032 : en:01:34:24.032 Descargar Enlaces De FreakShare AQUI http://s2l.biz/v09emumw8waw Utiliza los Archivos .REV si tienes problema con 1,2,3 archivos en su descarga , Esté off o corruptos Si necesitas 2 archivos , Bajas 2 REV y los reconstruirán Cualquiera que fuesen los que te falten !
  11. Aprendices Fuera de Línea BDRip 720p Español LATiNO 5.1/Ingles DTS Sub Esp [2013][Comedia] Ficha Técnica TÍTULO ORIGINAL: The Internship OTROS TÍTULOS: Los becarios / Aprendices Fuera de Línea AÑO: 2013 PAÍS: USA DURACIÓN: 119 min. DIRECTOR: Shawn Levy REPARTO: Owen Wilson, Vince Vaughn, Rose Byrne, John Goodman, JoAnna Garcia Swisher, Dylan OBrien, Max Minghella, Jessica Szohr, Bruno Amato, Josh Gad, Aasif Mandvi, Tiya Sircar, Chasty Ballesteros, Will Ferrell GUIÓN: Vince Vaughn MÚSICA: Christophe Beck FOTOGRAFÍA: Jonathan Brown PRODUCTORA: 2Oth C3ntury F0x / 21 L4ps Ent3rta1nm3nt / Wild West Picture Sh0w Productions GÉNERO: Comedia. Trabajo/empleo. Internet/Informática FECHA DE ESTRENO USA: 7 de junio de 2013 FECHA DE ESTRENO COLOMBIA: 21 de junio de 2013 FECHA DE ESTRENO ESPAÑA: 28 de junio de 2013 FECHA DE ESTRENO MÉXICO: 13 de septiembre de 2013 Sinopsis Billy (Vince Vaughn) y Nick (Owen Wilson), dos comerciales ya cuarentones que han perdido su empleo, llegan a la conclusión de que su problema consiste en no haberse adaptado a las nuevas tecnologías. Deciden entonces empezar de cero y buscar trabajo en la empresa más popular de Internet: Google. Cuando, por fin, consiguen un contrato de prácticas como becarios, se verán obligados a competir con jóvenes veinteañeros, universitarios brillantes mucho más listos y más familiarizados que ellos con el mundo digital. Datos Técnicos General Format : Matroska Format version : Version 2 File size : 5.77 GiB Duration : 2h 5mn Overall bit rate : 6 605 Kbps Movie name : CadagotoHD Encoded date : UTC 2013-10-11 00:23:24 Writing application : mkvmerge v3.4.0 ('Rapunzel') built on May 15 2010 09:38:20 Writing library : libebml v0.8.0 + libmatroska v0.9.0 Video ID : 1 Format : AVC Format/Info : Advanced Video Codec Format profile : [email protected] Format settings, CABAC : Yes Format settings, ReFrames : 5 frames Codec ID : V_MPEG4/ISO/AVC Duration : 2h 5mn Bit rate : 4 517 Kbps Width : 1 280 pixels Height : 544 pixels Display aspect ratio : 2.35:1 Frame rate mode : Constant Frame rate : 23.976 fps Color space : YUV Chroma subsampling : 4:2:0 Bit depth : 8 bits Scan type : Progressive Bits/(Pixel*Frame) : 0.271 Stream size : 3.94 GiB (68%) Title : CadagotoHD Language : English Default : No Forced : No Audio #1 ID : 2 Format : AC-3 Format/Info : Audio Coding 3 Mode extension : CM (complete main) Format settings, Endianness : Big Codec ID : A_AC3 Duration : 2h 5mn Bit rate mode : Constant Bit rate : 448 Kbps Channel count : 6 channels Channel positions : Front: L C R, Side: L R, LFE Sampling rate : 48.0 KHz Bit depth : 16 bits Compression mode : Lossy Stream size : 401 MiB (7%) Title : CadagotoHD - Audio Español Latino AC3 5.1 448 Kbps Language : Spanish Default : Yes Forced : Yes Audio #2 ID : 3 Format : DTS Format/Info : Digital Theater Systems Mode : 16 Format settings, Endianness : Big Codec ID : A_DTS Duration : 2h 5mn Bit rate mode : Constant Bit rate : 1 509 Kbps Channel count : 6 channels Channel positions : Front: L C R, Side: L R, LFE Sampling rate : 48.0 KHz Bit depth : 24 bits Compression mode : Lossy Delay relative to video : 11ms Stream size : 1.32 GiB (23%) Title : CadagotoHD - Audio Ingles DTS 1509 Kbps Language : English Default : No Forced : No Text #1 ID : 4 Format : UTF-8 Codec ID : S_TEXT/UTF8 Codec ID/Info : UTF-8 Plain Text Language : Spanish Default : Yes Forced : Yes Text #2 ID : 5 Format : UTF-8 Codec ID : S_TEXT/UTF8 Codec ID/Info : UTF-8 Plain Text Title : CadagotoHD - Subtitulos Español Latino Language : Spanish Default : No Forced : No Menu 00:00:00.000 : en:00:00:00.000 00:05:28.036 : en:00:05:28.036 00:07:50.428 : en:00:07:50.428 00:14:21.569 : en:00:14:21.569 00:19:40.387 : en:00:19:40.387 00:25:58.932 : en:00:25:58.932 00:28:59.780 : en:00:28:59.780 00:32:37.372 : en:00:32:37.372 00:35:04.769 : en:00:35:04.769 00:36:19.344 : en:00:36:19.344 00:41:52.009 : en:00:41:52.009 00:44:34.922 : en:00:44:34.922 00:48:04.840 : en:00:48:04.840 00:50:37.576 : en:00:50:37.576 00:58:27.754 : en:00:58:27.754 01:02:17.776 : en:01:02:17.776 01:06:08.798 : en:01:06:08.798 01:11:12.852 : en:01:11:12.852 01:14:02.646 : en:01:14:02.646 01:15:46.917 : en:01:15:46.917 01:18:54.438 : en:01:18:54.438 01:21:27.299 : en:01:21:27.299 01:24:11.630 : en:01:24:11.630 01:26:07.078 : en:01:26:07.078 01:27:57.731 : en:01:27:57.731 01:29:37.497 : en:01:29:37.497 01:31:39.911 : en:01:31:39.911 01:37:15.788 : en:01:37:15.788 01:42:32.938 : en:01:42:32.938 01:48:12.819 : en:01:48:12.819 01:54:18.810 : en:01:54:18.810 01:57:37.634 : en:01:57:37.634 Descargar Enlaces De FreakShare AQUI http://s2l.biz/16ffhum193b Utiliza los Archivos .REV si tienes problema con 1,2,3 archivos en su descarga , Esté off o corruptos Si necesitas 2 archivos , Bajas 2 REV y los reconstruirán Cualquiera que fuesen los que te falten !
  12. El Conjuro Full Blu-Ray BD50 Audio LATiNO [2013][Terror] Ficha Técnica Título original: The Conjuring (The Warren Files) Otros Títulos: El Conjuro Año: 2013 Duración: 112 min. País: Estados Unidos Director: James Wan Guión: Chad Hayes, Carey Hayes Música: Joseph Bishara Fotografía: John R. Leonetti Reparto: Lili Taylor, Vera Farmiga, Patrick Wilson, Joey King, Ron Livingston, Mackenzie Foy, Shanley Caswell, Hayley McFarland, Sterling Jerins, Shannon Kook Productora: WB / New Line Cinema / Evergreen Media / The Safran Company Género: Terror. Thriller | Sobrenatural. Casas encantadas. Basado en hechos reales. Posesiones/Exorcismos. Años 70 Sinopsis La película esta basada en la historia real de la familia Perron y sus encuentros sobrenaturales en su casa de Rhode Island. Ed y Lorraine Warren, investigadores de renombre en el mundo de los fenómenos paranormales, son llamados por una familia aterrorizada por una presencia oscura en una granja aislada. Obligados a enfrentarse a una poderosa entidad demoníaca, los Warren se encontraron atrapados en el caso más terrorífico de sus vidas Datos Técnicos DISC INFO: Disc Title: The.Conjuring.2013.Blu-ray.LATiNO Disc Size: 31,076,280,267 bytes Protection: AACS BD-Java: No BDInfo: 0.5.8 PLAYLIST REPORT: Name: 00100.MPLS Length: 1:51:57.085 (h:m:s.ms) Size: 26,943,909,888 bytes Total Bitrate: 32.09 Mbps VIDEO: Codec Bitrate Description ----- ------- ----------- MPEG-4 AVC Video 24745 kbps 1080p / 23.976 fps / 16:9 / High Profile 4.1 AUDIO: Codec Language Bitrate Description ----- -------- ------- ----------- DTS-HD Master Audio English 3546 kbps 5.1 / 48 kHz / 3546 kbps / 24-bit (DTS Core: 5.1 / 48 kHz / 1509 kbps / 24-bit) Dolby Digital Audio French 640 kbps 5.1 / 48 kHz / 640 kbps / DN -4dB Dolby Digital Audio Spanish 640 kbps 5.1 / 48 kHz / 640 kbps / DN -4dB Dolby Digital Audio Portuguese 640 kbps 5.1 / 48 kHz / 640 kbps / DN -4dB SUBTITLES: Codec Language Bitrate Description ----- -------- ------- ----------- Presentation Graphics English 26.730 kbps Presentation Graphics French 16.147 kbps Presentation Graphics Spanish 21.046 kbps Presentation Graphics Portuguese 21.253 kbps Presentation Graphics French 0.463 kbps Presentation Graphics Spanish 0.581 kbps Presentation Graphics Portuguese 0.317 kbps Links Uploaded.To Compra , extiende tu cuenta premiun Uploaded.To Aqui Si Ya Tienes Cuenta En Ul.To y deseas colaborar , compra tu premiun con un correo Nuevo! http://ul.to/ref/2144263 http://s2l.biz/tf2zdumw006rr Utiliza los Archivos .REV si tienes problema con 1,2,3 archivos en su descarga , Esté off o corruptos Si necesitas 2 archivos , Bajas 2 REV y los reconstruirán Cualquiera que fuesen los que te falten !
  13. Subtitulos probados y sin problemas ..... si aun asi no puedes verlos , traigo unos srt aparte saludos
  14. La acabo de ver completa , muy buena trama y cumple su prometido miedo,suspenso y partes de terror verdadero!
  15. Titanes del Pacífico 3D Full Blu-Ray Audio LATiNO [2013][Ciencia ficción] Ficha Técnica TÍTULO ORIGINAL: Pacific Rim OTROS TÍTULOS: Titanes del Pacífico AÑO: 2013 PAÍS: USA DURACIÓN: 131 min. DIRECTOR: Guillermo del Toro REPARTO: Charlie Hunnam, Idris Elba, Rinko Kikuchi, Charlie Day, Diego Klattenhoff, Burn Gorman, Max Martini, Robert Kazinsky, Clifton Collins Jr., Ron Perlman, Brad William Henke, Larry Joe Campbell, Mana Ashida, Santiago Segura, Joe Pingue GUIÓN: Travis Beacham, Guillermo del Toro (Historia: Travis Beacham) MÚSICA: Ramin Djawadi FOTOGRAFÍA: Guillermo Navarro PRODUCTORA: W4rn3r Br0s. Pictures / L3g3nd4ry P1ctur3s GÉNERO: Ciencia ficción. Acción. Robots. Monstruos. Extraterrestres. Cine épico FECHA DE ESTRENO CHILE: 2 de julio de 2013 FECHA DE ESTRENO ARGENTINA: 7 de julio de 2013 FECHA DE ESTRENO MÉXICO: 12 de julio de 2013 FECHA DE ESTRENO USA: 12 de julio de 2013 FECHA DE ESTRENO ESPAÑA: 9 de agosto de 2013 Sinopsis Cuando legiones de monstruosas criaturas, denominadas Kaiju, comienzan a salir del mar, se inicia una guerra que acabará con millones de vidas y que consumirá los recursos de la humanidad durante interminables años. Para combatir a los Kaiju gigantes diseñan un tipo especial de arma: enormes robots, llamados Jaegers, que son controlados simultáneamente por dos pilotos cuyas mentes están bloqueadas en un puente neural. Pero incluso los Jaegers proporcionan poca defensa ante los incansables Kaiju. A punto de la derrota, las fuerzas que defienden a la humanidad no tienen otra elección que recurrir a dos insólitos héroes: un ex piloto acabado (Charlie Hunnam) y un aprendiz que todavía no se ha puesto a prueba (Rinko Kikuchi). Ambos se unen para traer a un legendario pero al parecer obsoleto Jaeger del pasado. Juntos, son la última esperanza de la humanidad frente al Apocalipsis que se avecina. Datos Técnicos Disc Info: Disc Title: Pacific.Rim.2013.3D.BluRay.LATiNO Disc Size: 44,693,814,742 bytes Protection: AACS BD-Java: No Extras: Blu-ray 3D Name: 00098.MPLS Length: 2:11:16.910 (h:m:s.ms) Size: 43,897,743,360 bytes Total Bitrate: 44.58 Mbps Video: MPEG-4 AVC Video 22003 kbps 1080p / 23.976 fps / 16:9 / High Profile 4.1 MPEG-4 MVC Video 10828 kbps Audio: DTS-HD Master Audio English 2487 kbps 5.1 / 48 kHz / 2487 kbps / 16-bit (DTS Core: 5.1 / 48 kHz / 1509 kbps / 16-bit) DTS-HD Master Audio English 3025 kbps 7.1 / 48 kHz / 3025 kbps / 16-bit (DTS Core: 5.1 / 48 kHz / 1509 kbps / 16-bit) Dolby Digital Audio French 640 kbps 5.1 / 48 kHz / 640 kbps / DN -4dB Dolby Digital Audio Spanish 640 kbps 5.1 / 48 kHz / 640 kbps / DN -4dB Dolby Digital Audio Portuguese 640 kbps 5.1 / 48 kHz / 640 kbps / DN -4dB Dolby Digital Audio Thai 640 kbps 5.1 / 48 kHz / 640 kbps / DN -4dB Subtitles: Presentation Graphics English 58.065 kbps Presentation Graphics French 41.669 kbps Presentation Graphics Chinese 42.939 kbps Presentation Graphics Chinese 41.998 kbps Presentation Graphics Korean 36.824 kbps Presentation Graphics Spanish 50.840 kbps Presentation Graphics Portuguese 49.568 kbps Presentation Graphics Greek 47.875 kbps Presentation Graphics Indonesian 54.795 kbps Presentation Graphics Thai 43.444 kbps Presentation Graphics Spanish 1.348 kbps Presentation Graphics Portuguese 1.656 kbps Links Uploaded.To Compra , extiende tu cuenta premiun Uploaded.To Aqui Si Ya Tienes Cuenta En Ul.To y deseas colaborar , compra tu premiun con un correo Nuevo! http://ul.to/ref/2144263 http://s2l.biz/kj6ndumokdr2b Utiliza los Archivos .REV si tienes problema con 1,2,3 archivos en su descarga , Esté off o corruptos Si necesitas 2 archivos , Bajas 2 REV y los reconstruirán Cualquiera que fuesen los que te falten !
  16. Para quienes tengan problemas en reproducir el blu ray , dentro de la carpeta donde estan los enlaces agregue uno nuevo que al decomprimir les dara la carpeta CERTIFICATE , la agregan a la carpeta del blu ray y solucionaran su problema http://uploaded.net/file/ad1xvvmy/TIT4P4IBD50LATCERTIFICATE.CadagotoHD.Com.rar saludos
  17. El Conjuro BDRip 720p Español LATiNO AC3 5.1/Ingles DTS Sub Esp [2013][Terror] Ficha Técnica Título original: The Conjuring (The Warren Files) Otros Títulos: El Conjuro Año: 2013 Duración: 112 min. País: Estados Unidos Director: James Wan Guión: Chad Hayes, Carey Hayes Música: Joseph Bishara Fotografía: John R. Leonetti Reparto: Lili Taylor, Vera Farmiga, Patrick Wilson, Joey King, Ron Livingston, Mackenzie Foy, Shanley Caswell, Hayley McFarland, Sterling Jerins, Shannon Kook Productora: WB / New Line Cinema / Evergreen Media / The Safran Company Género: Terror. Thriller | Sobrenatural. Casas encantadas. Basado en hechos reales. Posesiones/Exorcismos. Años 70 Sinopsis La película esta basada en la historia real de la familia Perron y sus encuentros sobrenaturales en su casa de Rhode Island. Ed y Lorraine Warren, investigadores de renombre en el mundo de los fenómenos paranormales, son llamados por una familia aterrorizada por una presencia oscura en una granja aislada. Obligados a enfrentarse a una poderosa entidad demoníaca, los Warren se encontraron atrapados en el caso más terrorífico de sus vidas Datos Técnicos General Format : Matroska Format version : Version 2 File size : 4.67 GiB Duration : 1h 51mn Overall bit rate : 5 974 Kbps Movie name : CadagotoHD Encoded date : UTC 2013-10-07 22:52:00 Writing application : mkvmerge v3.4.0 ('Rapunzel') built on May 15 2010 09:38:20 Writing library : libebml v0.8.0 + libmatroska v0.9.0 Video ID : 1 Format : AVC Format/Info : Advanced Video Codec Format profile : [email protected] Format settings, CABAC : Yes Format settings, ReFrames : 5 frames Codec ID : V_MPEG4/ISO/AVC Duration : 1h 51mn Bit rate : 4 075 Kbps Width : 1 280 pixels Height : 536 pixels Display aspect ratio : 2.40:1 Frame rate mode : Constant Frame rate : 23.976 fps Color space : YUV Chroma subsampling : 4:2:0 Bit depth : 8 bits Scan type : Progressive Bits/(Pixel*Frame) : 0.248 Stream size : 3.10 GiB (66%) Title : CadagotoHD Writing library : x264 core 133 r2334 a3ac64b Encoding settings : cabac=1 / ref=5 / deblock=1:0:0 / analyse=0x3:0x133 / me=umh / subme=7 / psy=1 / psy_rd=1.00:0.00 / mixed_ref=1 / me_range=16 / chroma_me=1 / trellis=1 / 8x8dct=1 / cqm=0 / deadzone=21,11 / fast_pskip=0 / chroma_qp_offset=-2 / threads=12 / lookahead_threads=2 / sliced_threads=0 / nr=0 / decimate=1 / interlaced=0 / bluray_compat=0 / constrained_intra=0 / bframes=3 / b_pyramid=2 / b_adapt=1 / b_bias=0 / direct=1 / weightb=1 / open_gop=0 / weightp=2 / keyint=250 / keyint_min=23 / scenecut=40 / intra_refresh=0 / rc_lookahead=40 / rc=2pass / mbtree=1 / bitrate=4075 / ratetol=1.0 / qcomp=0.60 / qpmin=0 / qpmax=69 / qpstep=4 / cplxblur=20.0 / qblur=0.5 / ip_ratio=1.40 / aq=1:1.00 Language : English Default : No Forced : No Audio #1 ID : 2 Format : AC-3 Format/Info : Audio Coding 3 Mode extension : CM (complete main) Format settings, Endianness : Big Codec ID : A_AC3 Duration : 1h 51mn Bit rate mode : Constant Bit rate : 384 Kbps Channel count : 6 channels Channel positions : Front: L C R, Side: L R, LFE Sampling rate : 48.0 KHz Bit depth : 16 bits Compression mode : Lossy Stream size : 308 MiB (6%) Title : CadagotoHD - Audio Español Latino AC3 5.1 384 Kbps Language : Spanish Default : No Forced : No Audio #2 ID : 3 Format : DTS Format/Info : Digital Theater Systems Mode : 16 Format settings, Endianness : Big Codec ID : A_DTS Duration : 1h 51mn Bit rate mode : Constant Bit rate : 1 509 Kbps Channel count : 6 channels Channel positions : Front: L C R, Side: L R, LFE Sampling rate : 48.0 KHz Bit depth : 24 bits Compression mode : Lossy Delay relative to video : 11ms Stream size : 1.18 GiB (25%) Title : CadagotoHD - Audio Ingles DTS 1509 Kbps Language : English Default : No Forced : No Text #1 ID : 4 Format : UTF-8 Codec ID : S_TEXT/UTF8 Codec ID/Info : UTF-8 Plain Text Language : Spanish Default : Yes Forced : Yes Text #2 ID : 5 Format : VobSub Muxing mode : zlib Codec ID : S_VOBSUB Codec ID/Info : The same subtitle format used on DVDs Title : CadagotoHD - Subtitulos Español Latino Language : Spanish Default : No Forced : No Menu 00:00:00.000 : en:00:00:00.000 00:08:52.991 : en:00:08:52.991 00:19:26.665 : en:00:19:26.665 00:29:15.754 : en:00:29:15.754 00:40:50.239 : en:00:40:50.239 00:51:06.730 : en:00:51:06.730 00:59:55.467 : en:00:59:55.467 01:10:37.150 : en:01:10:37.150 01:21:03.108 : en:01:21:03.108 01:28:59.292 : en:01:28:59.292 01:38:10.760 : en:01:38:10.760 01:46:08.362 : en:01:46:08.362 Descargar Enlaces De FreakShare AQUI http://s2l.biz/ptcubumtet5 Utiliza los Archivos .REV si tienes problema con 1,2,3 archivos en su descarga , Esté off o corruptos Si necesitas 2 archivos , Bajas 2 REV y los reconstruirán Cualquiera que fuesen los que te falten !
  18. Titanes del Pacífico BDRip 720p Español LATiNO 5.1/Ingles DTS Sub Esp [2013][Acción] Ficha Técnica Pacific Rim / Titanes del Pacífico Año: 2013 Duración: 131 min. País: Estados Unidos Director: Guillermo del Toro Guión: Travis Beacham, Guillermo del Toro (Historia: Travis Beacham) Música: Ramin Djawadi Fotografía: Guillermo Navarro Reparto: Charlie Hunnam, Idris Elba, Rinko Kikuchi, Charlie Day, Diego Klattenhoff, Burn Gorman, Max Martini, Robert Kazinsky, Clifton Collins Jr., Ron Perlman, Brad William Henke, Larry Joe Campbell, Mana Ashida, Santiago Segura, Joe Pingue Productora: Warner Bros. Pictures / Legendary Pictures Género: Ciencia ficción. Acción | Robots. Monstruos. Extraterrestres. Cine épico Sinopsis Cuando legiones de monstruosas criaturas, denominadas Kaiju, comienzan a salir del mar, se inicia una guerra que acabará con millones de vidas y que consumirá los recursos de la humanidad durante interminables años. Para combatir a los Kaiju gigantes diseñan un tipo especial de arma: enormes robots, llamados Jaegers, que son controlados simultáneamente por dos pilotos cuyas mentes están bloqueadas en un puente neural. Pero incluso los Jaegers proporcionan poca defensa ante los incansables Kaiju. A punto de la derrota, las fuerzas que defienden a la humanidad no tienen otra elección que recurrir a dos insólitos héroes: un ex piloto acabado (Charlie Hunnam) y un aprendiz que todavía no se ha puesto a prueba (Rinko Kikuchi). Ambos se unen para traer a un legendario pero al parecer obsoleto Jaeger del pasado. Juntos, son la última esperanza de la humanidad frente al Apocalipsis que se avecina. Datos Técnicos General Format : Matroska Format version : Version 2 File size : 7.04 GiB Duration : 2h 11mn Overall bit rate mode : Variable Overall bit rate : 7 672 Kbps Movie name : CadagotoHD Encoded date : UTC 2013-10-06 05:28:02 Writing application : mkvmerge v3.4.0 ('Rapunzel') built on May 15 2010 09:38:20 Writing library : libebml v0.8.0 + libmatroska v0.9.0 Video ID : 1 Format : AVC Format/Info : Advanced Video Codec Format profile : [email protected] Format settings, CABAC : Yes Format settings, ReFrames : 5 frames Codec ID : V_MPEG4/ISO/AVC Duration : 2h 11mn Bit rate : 5 306 Kbps Width : 1 280 pixels Height : 720 pixels Display aspect ratio : 16:9 Frame rate mode : Constant Frame rate : 23.976 fps Color space : YUV Chroma subsampling : 4:2:0 Bit depth : 8 bits Scan type : Progressive Bits/(Pixel*Frame) : 0.240 Stream size : 4.87 GiB (69%) Title : CadagotoHD Language : English Default : No Forced : No Audio #1 ID : 2 Format : AC-3 Format/Info : Audio Coding 3 Mode extension : CM (complete main) Format settings, Endianness : Big Codec ID : A_AC3 Duration : 2h 11mn Bit rate mode : Constant Bit rate : 640 Kbps Channel count : 6 channels Channel positions : Front: L C R, Side: L R, LFE Sampling rate : 48.0 KHz Bit depth : 16 bits Compression mode : Lossy Stream size : 601 MiB (8%) Title : CadagotoHD - Audio Español Latino AC3 5.1 640 Kbps Language : Spanish Default : Yes Forced : Yes Audio #2 ID : 3 Format : DTS Format/Info : Digital Theater Systems Mode : 16 Format settings, Endianness : Big Codec ID : A_DTS Duration : 2h 11mn Bit rate mode : Constant Bit rate : 1 509 Kbps Channel count : 6 channels Channel positions : Front: L C R, Side: L R, LFE Sampling rate : 48.0 KHz Bit depth : 24 bits Compression mode : Lossy Delay relative to video : 11ms Stream size : 1.38 GiB (20%) Title : CadagotoHD - Audio Ingles DTS 1509 Kbps Language : English Default : No Forced : No Audio #3 ID : 4 Format : Vorbis Format settings, Floor : 1 Codec ID : A_VORBIS Duration : 2h 11mn Bit rate mode : Variable Bit rate : 64.0 Kbps Channel count : 2 channels Sampling rate : 48.0 KHz Compression mode : Lossy Stream size : 60.1 MiB (1%) Writing library : aoTuV 20110424 (UTC 2011-04-24) Language : English Default : No Forced : No Text #1 ID : 5 Format : UTF-8 Codec ID : S_TEXT/UTF8 Codec ID/Info : UTF-8 Plain Text Language : Spanish Default : Yes Forced : Yes Text #2 ID : 6 Format : PGS Codec ID : S_HDMV/PGS Codec ID/Info : The same subtitle format used on BDs/HD-DVDs Title : CadagotoHD - Subtitulos Español Latino Language : Spanish Default : No Forced : No Menu 00:00:00.000 : en:00:00:00.000 00:09:09.132 : en:00:09:09.132 00:18:35.823 : en:00:18:35.823 00:23:04.341 : en:00:23:04.341 00:33:00.395 : en:00:33:00.395 00:42:44.896 : en:00:42:44.896 00:50:01.665 : en:00:50:01.665 01:01:09.666 : en:01:01:09.666 01:14:45.106 : en:01:14:45.106 01:22:21.311 : en:01:22:21.311 01:32:09.941 : en:01:32:09.941 01:41:55.609 : en:01:41:55.609 01:51:37.858 : en:01:51:37.858 01:59:21.029 : en:01:59:21.029 02:02:17.830 : en:02:02:17.830 Descargar Enlaces De FreakShare AQUI http://s2l.biz/zgli8umpcdt6j Utiliza los Archivos .REV si tienes problema con 1,2,3 archivos en su descarga , Esté off o corruptos Si necesitas 2 archivos , Bajas 2 REV y los reconstruirán Cualquiera que fuesen los que te falten !
  19. Pacific Rim Full Blu-Ray BD50 Audio LATiNO [2013][Ciencia Ficción] Ficha Técnica Pacific Rim / Titanes del Pacífico Año: 2013 Duración: 131 min. País: Estados Unidos Director: Guillermo del Toro Guión: Travis Beacham, Guillermo del Toro (Historia: Travis Beacham) Música: Ramin Djawadi Fotografía: Guillermo Navarro Reparto: Charlie Hunnam, Idris Elba, Rinko Kikuchi, Charlie Day, Diego Klattenhoff, Burn Gorman, Max Martini, Robert Kazinsky, Clifton Collins Jr., Ron Perlman, Brad William Henke, Larry Joe Campbell, Mana Ashida, Santiago Segura, Joe Pingue Productora: Warner Bros. Pictures / Legendary Pictures Género: Ciencia ficción. Acción | Robots. Monstruos. Extraterrestres. Cine épico Sinopsis Cuando legiones de monstruosas criaturas, denominadas Kaiju, comienzan a salir del mar, se inicia una guerra que acabará con millones de vidas y que consumirá los recursos de la humanidad durante interminables años. Para combatir a los Kaiju gigantes diseñan un tipo especial de arma: enormes robots, llamados Jaegers, que son controlados simultáneamente por dos pilotos cuyas mentes están bloqueadas en un puente neural. Pero incluso los Jaegers proporcionan poca defensa ante los incansables Kaiju. A punto de la derrota, las fuerzas que defienden a la humanidad no tienen otra elección que recurrir a dos insólitos héroes: un ex piloto acabado (Charlie Hunnam) y un aprendiz que todavía no se ha puesto a prueba (Rinko Kikuchi). Ambos se unen para traer a un legendario pero al parecer obsoleto Jaeger del pasado. Juntos, son la última esperanza de la humanidad frente al Apocalipsis que se avecina. Datos Técnicos Disc Title: PACIFIC_RIM Disc Size: 45.435.962.553 bytes Protection: AACS BD-Java: Yes BDInfo: 0.5.8 PLAYLIST REPORT: Name: 00100.MPLS Length: 2:11:16.910 (h:m:s.ms) Size: 37.621.948.416 bytes Total Bitrate: 38,21 Mbps VIDEO: MPEG-4 AVC Video 23902 kbps 1080p / 23,976 fps / 16:9 / High Profile 4.1 AUDIO: DTS-HD Master Audio English 4307 kbps 5.1 / 48 kHz / 4307 kbps / 24-bit (DTS Core: 5.1 / 48 kHz / 1509 kbps / 24-bit) DTS-HD Master Audio English 5461 kbps 7.1 / 48 kHz / 5461 kbps / 24-bit (DTS Core: 5.1 / 48 kHz / 1509 kbps / 24-bit) Dolby Digital Audio French 640 kbps 5.1 / 48 kHz / 640 kbps / DN -4dB Dolby Digital Audio Spanish 640 kbps 5.1 / 48 kHz / 640 kbps / DN -4dB Dolby Digital Audio Portuguese 640 kbps 5.1 / 48 kHz / 640 kbps / DN -4dB Dolby Digital Audio English 192 kbps 2.0 / 48 kHz / 192 kbps / DN -4dB / Dolby Surround SUBTITLES: Presentation Graphics English 30,990 kbps Presentation Graphics French 22,462 kbps Presentation Graphics Spanish 27,572 kbps Presentation Graphics Portuguese 27,002 kbps Presentation Graphics Spanish 0,639 kbps Presentation Graphics Portuguese 0,854 kbps Links Uploaded.To Compra , extiende tu cuenta premiun Uploaded.To Aqui Si Ya Tienes Cuenta En Ul.To y deseas colaborar , compra tu premiun con un correo Nuevo! http://ul.to/ref/2144263 http://s2l.biz/0lqe8um7351ko Utiliza los Archivos .REV si tienes problema con 1,2,3 archivos en su descarga , Esté off o corruptos Si necesitas 2 archivos , Bajas 2 REV y los reconstruirán Cualquiera que fuesen los que te falten !
  20. Chicas Armadas y Peligrosas BDRip 720p Español LATiNO 5.1/Ingles DTS Sub Esp [2013][Comedia] Ficha Técnica TÍTULO ORIGINAL: The Heat OTROS TÍTULOS: Cuerpos especiales / Armadas y Peligrosas / Chicas Armadas y Peligrosas AÑO: 2013 PAÍS: USA DURACIÓN: 117 min. DIRECTOR: Paul Feig REPARTO: Sandra Bullock, Melissa McCarthy, Dan Bakkedahl, Michael Rapaport, Marlon Wayans, Tony Hale, Thomas F. Wilson, Brandon Richardson, Taran Killam, Nathan Corddry, Kaitlin Olson, Demián Bichir, Bill Burr, Michael McDonald GUIÓN: Lee Eisenberg, Katie Dippold, Gene Stupnitsky MÚSICA: Michael Andrews FOTOGRAFÍA: Robert D. Yeoman PRODUCTORA: 20th C3ntury F0x / Ch3rn1n Entertainment GÉNERO: Comedia. Acción. Policíaco. Crimen FECHA DE ESTRENO USA: 28 de junio de 2013 FECHA DE ESTRENO MÉXICO: 30 de agosto de 2013 FECHA DE ESTRENO ARGENTINA: 26 de septiembre de 2013 FECHA DE ESTRENO ESPAÑA: 25 de Octubre de 2013 Sinopsis Sarah Ashburn es una arrogante detective del FBI que se verá obligada a trabajar a regañadientes junto a Shannon Mullins, una agente de policía de la ciudad de Boston, Massachusetts, de carácter excéntrico e impulsivo. Las dos mujeres tendrán que aprender a resolver sus grandes diferencias, a compartir sus habilidades y a unir sus fuerzas para conseguir el objetivo que tienen en común: acabar de una vez por todas con un terrorista ruso extremadamente peligroso. Datos Técnicos General Format : Matroska Format version : Version 2 File size : 5.85 GiB Duration : 2h 0mn Overall bit rate : 6 955 Kbps Movie name : CadagotoHD Encoded date : UTC 2013-10-05 20:38:05 Writing application : mkvmerge v3.4.0 ('Rapunzel') built on May 15 2010 09:38:20 Writing library : libebml v0.8.0 + libmatroska v0.9.0 Video ID : 1 Format : AVC Format/Info : Advanced Video Codec Format profile : [email protected] Format settings, CABAC : Yes Format settings, ReFrames : 5 frames Codec ID : V_MPEG4/ISO/AVC Duration : 2h 0mn Bit rate : 4 860 Kbps Width : 1 280 pixels Height : 534 pixels Display aspect ratio : 2.40:1 Frame rate mode : Constant Frame rate : 23.976 fps Color space : YUV Chroma subsampling : 4:2:0 Bit depth : 8 bits Scan type : Progressive Bits/(Pixel*Frame) : 0.297 Stream size : 4.08 GiB (70%) Title : CadagotoHD Language : English Default : No Forced : No Audio #1 ID : 2 Format : AC-3 Format/Info : Audio Coding 3 Mode extension : CM (complete main) Format settings, Endianness : Big Codec ID : A_AC3 Duration : 2h 0mn Bit rate mode : Constant Bit rate : 448 Kbps Channel count : 6 channels Channel positions : Front: L C R, Side: L R, LFE Sampling rate : 48.0 KHz Bit depth : 16 bits Compression mode : Lossy Stream size : 386 MiB (6%) Title : CadagotoHD - Audio Español Latino AC3 5.1 448 Kbps Language : Spanish Default : Yes Forced : Yes Audio #2 ID : 3 Format : DTS Format/Info : Digital Theater Systems Mode : 16 Format settings, Endianness : Big Codec ID : A_DTS Duration : 2h 0mn Bit rate mode : Constant Bit rate : 1 509 Kbps Channel count : 6 channels Channel positions : Front: L C R, Side: L R, LFE Sampling rate : 48.0 KHz Bit depth : 24 bits Compression mode : Lossy Delay relative to video : 11ms Stream size : 1.27 GiB (22%) Title : CadagotoHD - Audio Ingles DTS 1509 Kbps Language : English Default : No Forced : No Text #1 ID : 4 Format : UTF-8 Codec ID : S_TEXT/UTF8 Codec ID/Info : UTF-8 Plain Text Language : Spanish Default : Yes Forced : Yes Text #2 ID : 5 Format : UTF-8 Codec ID : S_TEXT/UTF8 Codec ID/Info : UTF-8 Plain Text Title : CadagotoHD - Subtitulos Español Latino Language : Spanish Default : No Forced : No Menu 00:00:00.000 : en:00:00:00.000 00:01:46.023 : en:00:01:46.023 00:05:28.453 : en:00:05:28.453 00:07:15.977 : en:00:07:15.977 00:11:26.436 : en:00:11:26.436 00:14:17.899 : en:00:14:17.899 00:16:38.956 : en:00:16:38.956 00:19:50.940 : en:00:19:50.940 00:23:23.610 : en:00:23:23.610 00:26:18.118 : en:00:26:18.118 00:30:11.977 : en:00:30:11.977 00:34:07.837 : en:00:34:07.837 00:36:27.101 : en:00:36:27.101 00:39:12.975 : en:00:39:12.975 00:44:44.140 : en:00:44:44.140 00:47:59.585 : en:00:47:59.585 00:52:59.801 : en:00:52:59.801 00:56:13.787 : en:00:56:13.787 01:00:57.779 : en:01:00:57.779 01:03:25.802 : en:01:03:25.802 01:05:47.151 : en:01:05:47.151 01:09:34.795 : en:01:09:34.795 01:17:00.574 : en:01:17:00.574 01:23:38.638 : en:01:23:38.638 01:26:51.623 : en:01:26:51.623 01:28:37.020 : en:01:28:37.020 01:31:07.420 : en:01:31:07.420 01:34:08.559 : en:01:34:08.559 01:37:03.234 : en:01:37:03.234 01:39:41.225 : en:01:39:41.225 01:44:20.671 : en:01:44:20.671 01:45:41.502 : en:01:45:41.502 01:48:54.569 : en:01:48:54.569 01:51:15.710 : en:01:51:15.710 01:54:02.711 : en:01:54:02.711 01:55:24.876 : en:01:55:24.876 Descargar Enlaces De FreakShare AQUI http://s2l.biz/dx9t7um0vtjbw Utiliza los Archivos .REV si tienes problema con 1,2,3 archivos en su descarga , Esté off o corruptos Si necesitas 2 archivos , Bajas 2 REV y los reconstruirán Cualquiera que fuesen los que te falten !
×
×
  • Create New...