Jump to content

mauricio2050

Warianos
  • Posts

    139
  • Joined

  • Last visited

Información Personal

  • Pais
    Chile
  • Genero
    Hombre

mauricio2050's Achievements

Newbie

Newbie (1/14)

0

Reputation

  1. Narra la historia de un grupo de adolescentes estudiantes de instituto y sus padres que intentan asimilar las muchas maneras en que Internet ha cambiado sus relaciones, sus comunicaciones, la imagen de sí mismos y sus vidas amorosas. La película pretende analizar conflictos sociales tales como la cultura de los videojuegos, la anorexia, la infidelidad, la búsqueda de la fama y la proliferación de materiales ilícitos en Internet. A medida que se va poniendo a prueba a cada personaje y cada relación, se muestra la diversidad de caminos que escoge la gente (algunos trágicos, otros llenos de esperanza), mientras va quedando claro que nadie es inmune a este enorme cambio social que nos llega a través de nuestros teléfonos, nuestras tablets y nuestros ordenadores. Título: Hombres, mujeres & niños Título original: Men, Women & Children País: USA Estreno en USA: 01/10/2014 Estreno en España: 12/12/2014 Productora: Indian Paintbrush, Right of Way Films Director: Jason Reitman Guión: Jason Reitman, Erin Cressida Wilson Reparto: Timothée Chalamet, Olivia Crocicchia, Kaitlyn Dever, Ansel Elgort, Katherine Hughes, Elena Kampouris, Travis Tope, Rosemarie Dewitt, Jennifer Garner, Judy Greer, Dean Norris, Adam Sandler, Emma Thompson, David Denman, Jason Douglas, Dennis Haysbert, Shane Lynch, Will Peltz, J.K. Simmons Calificación: No recomendada para menores de 16 años Género: Drama | Adolescencia. Familia. Historias cruzadas. Internet / Informática Calidad de Video: HDRip XviD 720x400 Calidad de Audio: Castellano MiC DubbeD HQ 256kbps Subtitulos: Forzados Español Pegados para conversaciones SMS y Carteles. Tamaño: 1.90 GB Mediainfo Format : AVI Format/Info : Audio Video Interleave File size : 1.89 GiB Duration : 1h 59mn Overall bit rate : 2 270 Kbps Writing application : VirtualDubMod 1.5.10.2 (build 2542/release) Writing library : VirtualDubMod build 2542/release Video ID : 0 Format : MPEG-4 Visual Format profile : Advanced [email protected] Format settings, BVOP : 2 Format settings, QPel : No Format settings, GMC : No warppoints Format settings, Matrix : Default (H.263) Muxing mode : Packed bitstream Codec ID : XVID Codec ID/Hint : XviD Duration : 1h 59mn Bit rate : 2 005 Kbps Width : 720 pixels Height : 400 pixels Display aspect ratio : 16:9 Frame rate : 23.976 fps Color space : YUV Chroma subsampling : 4:2:0 Bit depth : 8 bits Scan type : Progressive Compression mode : Lossy Bits/(Pixel*Frame) : 0.290 Stream size : 1.67 GiB (88%) Writing library : XviD 65 Audio ID : 1 Format : MPEG Audio Format version : Version 1 Format profile : Layer 3 Codec ID : 55 Codec ID/Hint : MP3 Duration : 1h 59mn Bit rate mode : Constant Bit rate : 256 Kbps Channel(s) : 2 channels Sampling rate : 44.1 KHz Compression mode : Lossy Stream size : 219 MiB (11%) Alignment : Split accross interleaves Interleave, duration : 42 ms (1.00 video frame) Interleave, preload duration : 500 ms 1 Link y links Intercambiables http://gpaste.us/38e28bd4
  2. La historia se desarrolla en un futuro cercano en el que una raza alienígena tipo colmena, llamada Mimics, ha llegado a la Tierra realizando continuas agresiones, reduciendo a escombros grandes ciudades y dejando millones de víctimas humanas a su paso. Ningún ejército del mundo puede hacer frente a la velocidad, brutalidad o clarividencia de los militarizados combatientes Mimic o de sus telepáticos comandantes. Pero ahora los ejércitos del mundo han unido sus fuerzas para realizar una ofensiva de largo alcance contra las hordas alienígenas, sin que haya una segunda oportunidad. Título: Al filo del mañana Título original: Edge of Tomorrow País: USA Estreno en USA: 06/06/2014 Estreno en España: 30/05/2014 Productora: Warner Bros. Pictures Director: Doug Liman Guión: Dante Harper, Joby Harold Reparto: Tom Cruise, Emily Blunt, Bill Paxton, Charlotte Riley, Lee Asquith-Coe, Jonas Armstrong, Kick Gurry, Tony Way, Dragomir Mrsic, Franz Drameh, Deborah Rosan, Seelan Gunaseelan, Marco Flammer Calificación: No recomendada para menores de 12 años Calidad de Video: HDRip XviD 720x304 Calidad de Audio: Castellano MiC DubbeD HQ 256kbps Tamaño: 1.50 GB 1 Link y links Intercambiables http://gpaste.us/5ae05406
  3. La historia se desarrolla en un futuro cercano en el que una raza alienígena tipo colmena, llamada Mimics, ha llegado a la Tierra realizando continuas agresiones, reduciendo a escombros grandes ciudades y dejando millones de víctimas humanas a su paso. Ningún ejército del mundo puede hacer frente a la velocidad, brutalidad o clarividencia de los militarizados combatientes Mimic o de sus telepáticos comandantes. Pero ahora los ejércitos del mundo han unido sus fuerzas para realizar una ofensiva de largo alcance contra las hordas alienígenas, sin que haya una segunda oportunidad. Título: Al filo del mañana Título original: Edge of Tomorrow País: USA Estreno en USA: 06/06/2014 Estreno en España: 30/05/2014 Productora: Warner Bros. Pictures Director: Doug Liman Guión: Dante Harper, Joby Harold Reparto: Tom Cruise, Emily Blunt, Bill Paxton, Charlotte Riley, Lee Asquith-Coe, Jonas Armstrong, Kick Gurry, Tony Way, Dragomir Mrsic, Franz Drameh, Deborah Rosan, Seelan Gunaseelan, Marco Flammer Calificación: No recomendada para menores de 12 años Calidad de Video: WEB-DL 1080p - 1916x796 Calidad de Audio: Castellano MiC DubbeD HQ Tamaño: 3.40 GB 1 Link y links Intercambiables http://gpaste.us/ba00d33d
  4. La historia se desarrolla en un futuro cercano en el que una raza alienígena tipo colmena, llamada Mimics, ha llegado a la Tierra realizando continuas agresiones, reduciendo a escombros grandes ciudades y dejando millones de víctimas humanas a su paso. Ningún ejército del mundo puede hacer frente a la velocidad, brutalidad o clarividencia de los militarizados combatientes Mimic o de sus telepáticos comandantes. Pero ahora los ejércitos del mundo han unido sus fuerzas para realizar una ofensiva de largo alcance contra las hordas alienígenas, sin que haya una segunda oportunidad. Título: Al filo del mañana Título original: Edge of Tomorrow País: USA Estreno en USA: 06/06/2014 Estreno en España: 30/05/2014 Productora: Warner Bros. Pictures Director: Doug Liman Guión: Dante Harper, Joby Harold Reparto: Tom Cruise, Emily Blunt, Bill Paxton, Charlotte Riley, Lee Asquith-Coe, Jonas Armstrong, Kick Gurry, Tony Way, Dragomir Mrsic, Franz Drameh, Deborah Rosan, Seelan Gunaseelan, Marco Flammer Calificación: No recomendada para menores de 12 años Calidad de Video: WEB-DL 720p 1280x532 Calidad de Audio: Castellano MiC DubbeD HQ 256kbps Tamaño: 3.60 GB 1 Link y links Intercambiables http://gpaste.us/aebe7239
  5. En el apogeo de su carrera, el escritor Charles Dickens, casado y con 46 años, conoce a una joven de 18 que se convierte en su amante secreta hasta su muerte. Adaptación de la novela de Claire Tomalin. Título original The Invisible Woman Año 2013 Duración 111 min. País Reino Unido Director Ralph Fiennes Guión Abi Morgan (Novela: Claire Tomalin) Música Ilan Eshkeri Fotografía Rob Hardy Reparto Ralph Fiennes, Felicity Jones, Michelle Fairley, Kristin Scott Thomas, Tom Hollander, Perdita Weeks, Tom Burke Productora BBC Films / Headline Pictures / Magnolia Mae Films Género Romance. Drama | Drama romántico. Biográfico. Literatura. Siglo XIX CALIDAD DE VIDEO: HDRip XviD 720×304 CALIDAD DE AUDIO: Castellano AC3 5.1 TAMAÑO: 1.76 GB. Duración : 1h 51 min 1 Link y links Intercambiables http://gpaste.us/1000514a
  6. En el apogeo de su carrera, el escritor Charles Dickens, casado y con 46 años, conoce a una joven de 18 que se convierte en su amante secreta hasta su muerte. Adaptación de la novela de Claire Tomalin. Título original The Invisible Woman Año 2013 Duración 111 min. País Reino Unido Director Ralph Fiennes Guión Abi Morgan (Novela: Claire Tomalin) Música Ilan Eshkeri Fotografía Rob Hardy Reparto Ralph Fiennes, Felicity Jones, Michelle Fairley, Kristin Scott Thomas, Tom Hollander, Perdita Weeks, Tom Burke Productora BBC Films / Headline Pictures / Magnolia Mae Films Género Romance. Drama | Drama romántico. Biográfico. Literatura. Siglo XIX CALIDAD DE VIDEO: DVDRip XviD 720×304 CALIDAD DE AUDIO: Castellano AC3 5.1 SUBTITULOS FORZADOS PEGADOS EN EL VIDEO TAMAÑO: 1.21 GB. Duración : 1h 46min 1 Link y links Intercambiables http://gpaste.us/2d4285b4
  7. La ardilla Surly y su amigo Buddy planean dar el gran golpe de su vida a una tienda de frutos secos. Prácticamente sin darse cuenta, se ven enfrascados en el atraco a un banco que planean a su vez unos gángsters. Operación Cacahuete es una divertida comedia de aventuras para toda la familia. Título: Operación Cacahuete Título original: The Nut Job País: Canadá, Corea del Sur Estreno en USA: 17/01/2014 Estreno en España: 22/08/2014 Productora: Gulfstream Pictures, Red Rover International, ToonBox Entertainment Director: Peter Lepeniotis Guión: Peter Lepeniotis, Lorne Cameron Reparto: (Voces de) Liam Neeson, Katherine Heigl, Will Arnett, Brendan Fraser, Stephen Lang, Maya Rudolph, Jeff Dunham, Gabriel Iglesias, Sarah Gadon, James Rankin, Scott Yaphe, Joe Pingue, Annick Obonsawin, Julie Lemieux, Robert Tinkler Calificación: Apta para todos los públicos Calidad de Video: HDRip XviD 720x384 Calidad de Audio: Castellano LiNE 2.0 HQ 320kbps Tamaño: 1.40 GB 1 Link y links Intercambiables http://gpaste.us/fc30c9ec
  8. Después de que Albert (MacFarlane) se eche atrás en un duelo de pistolas, su veleidosa novia le deja por otro. No tarda en aparecer una mujer a caballo, tan bella como misteriosa, que le ayudará a encontrar el valor. Cuando empiezan a enamorarse, llega el marido, un conocido forajido, decidido a vengarse. El ovejero no tendrá más remedio que poner a prueba su recién encontrado coraje. Título: Mil maneras de morder el polvo Título original: A Million Ways to Die in the West País: USA Estreno en USA: 30/05/2014 Estreno en España: 04/07/2014 Productora: Universal Pictures Director: Seth MacFarlane Guión: Seth MacFarlane, Alex Sulkin, Wellesley Wild Reparto: Seth MacFarlane, Charlize Theron, Amanda Seyfried, Neil Patrick Harris, Liam Neeson, Giovanni Ribisi, Sarah Silverman Calificación: No recomendada para menores de 16 años Calidad de Video: HDRip XviD 720x304 Calidad de Audio: Castellano LiNE 2.0 HQ 320kbps Subtitulos: Forzados español incrustados Tamaño: 1.90 GB 1 Link y links Intercambiables http://gpaste.us/d8ee1737
  9. Divergente es un thriller de acción fascinante ambientado en un mundo futurista donde la sociedad está dividida en cinco facciones. Tris Prior (Shailene Woodley) escoge Osadía - atrevidos y arriesgados que persiguen la valentía por encima de todas las cosas. Durante la iniciación de la Osadía, Tris completa ejercicios acrobáticos, desafiando a la muerte, mientras se enfrenta a sus miedos más profundos en simulaciones espectaculares. Cuando descubre que es una Divergente, alguien que nunca encajaría en ninguna facción, le advierten que debe guardar el secreto si no quiere arriesgar su vida. Cuando Tris descubra que una guerra se avecina, la cual amenaza a su familia y la vida del misterioso líder de Osadía, de quien llega a enamorarse, Tris deberá afrontar su mayor prueba hasta ahora - y es que revelar que es una Divergente puede salvar el mundo... o destruirlo. Título: Divergente Título original: Divergent País: USA Estreno en USA: 21/03/2014 Estreno en España: 30/04/2014 Productora: Summit Entertainment, Lionsgate Director: Neil Burger Guión: Neil Burger, Veronica Roth, Vanessa Taylor Reparto: Kate Winslet, Shailene Woodley, Ashley Judd, Zoë Kravitz, Tony Goldwyn, Theo James, Ansel Elgort, Jai Courtney, Ray Stevenson, Miles Teller, Maggie Q, Mekhi Phifer, Christian Madsen, Ben Lloyd-Hughes, Justine Wachsberger Género: Ciencia ficción. Acción. Aventuras. Romance Calidad de Video: HDRip XviD 720x304 Calidad de Audio: Castellano AC3 5.1 Tamaño: 2.40 GB 1 Link y links Intercambiables http://gpaste.us/e2252a59
  10. Divergente es un thriller de acción fascinante ambientado en un mundo futurista donde la sociedad está dividida en cinco facciones. Tris Prior (Shailene Woodley) escoge Osadía - atrevidos y arriesgados que persiguen la valentía por encima de todas las cosas. Durante la iniciación de la Osadía, Tris completa ejercicios acrobáticos, desafiando a la muerte, mientras se enfrenta a sus miedos más profundos en simulaciones espectaculares. Cuando descubre que es una Divergente, alguien que nunca encajaría en ninguna facción, le advierten que debe guardar el secreto si no quiere arriesgar su vida. Cuando Tris descubra que una guerra se avecina, la cual amenaza a su familia y la vida del misterioso líder de Osadía, de quien llega a enamorarse, Tris deberá afrontar su mayor prueba hasta ahora - y es que revelar que es una Divergente puede salvar el mundo... o destruirlo. Título: Divergente Título original: Divergent País: USA Estreno en USA: 21/03/2014 Estreno en España: 30/04/2014 Lanzamiento en DVD (alquiler): 03/09/2014 Estreno en DVD (venta): 03/09/2014 Estreno en Blu-ray: 03/09/2014 Productora: Summit Entertainment, Lionsgate Director: Neil Burger Guión: Neil Burger, Veronica Roth, Vanessa Taylor Reparto: Kate Winslet, Shailene Woodley, Ashley Judd, Zoë Kravitz, Tony Goldwyn, Theo James, Ansel Elgort, Jai Courtney, Ray Stevenson, Miles Teller, Maggie Q, Mekhi Phifer, Christian Madsen, Ben Lloyd-Hughes, Justine Wachsberger Género: Ciencia ficción. Acción. Aventuras. Romance CALIDAD DE VIDEO: DVDRip XviD 720×304 CALIDAD DE AUDIO: Castellano AC3 5.1 TAMAÑO: 1.45 GB 1 Link y links Intercambiables http://gpaste.us/d688a018
  11. La pasión por la música lleva a Gretta (Keira Knightley) y a Dav (Adam Levine), novios desde el instituto, hasta Nueva York. Pero cuando él, una vez alcanzado el éxito y la fama, la abandona, ella se queda completamente desolada. Una noche, un productor de discos (Mark Ruffalo) recién despedido, la ve actuar en un bar de Manhattan y queda cautivado por su talento. Primera película en USA del director de "Once". Título original Begin Again (Can a Song Save Your Life?) Año 2013 Duración 104 min. País Estados Unidos Estados Unidos Director John Carney Guión John Carney Música Gregg Alexander Fotografía Yaron Orbach Reparto Keira Knightley, Mark Ruffalo, Hailee Steinfeld, Adam Levine, James Corden, CeeLo Green, Catherine Keener, Mos Def Productora The Weinstein Company / Exclusive Media Género Romance. Drama. Musical | Drama romántico. Música Calidad De Video: HDRip XviD 720 x 400 Calidad De Audio: castellano MIC Dubbed mp3 192 kbps Peso: 1.31 Gb 1 Link y links Intercambiables http://gpaste.us/0bfbcab3
  12. En un futuro no muy lejano, invade la Tierra una raza de extraterrestres invencibles. Al Comandante William Cage (Tom Cruise), un oficial que nunca ha entrado en combate, le encargan una misión casi suicida y resulta muerto. Entra entonces en un bucle temporal, en el que se ve obligado a luchar y morir una y otra vez. Pero las múltiples batallas que libra lo hacen cada vez más hábil y eficaz en su lucha contra los alienígenas. Su compañera de combate es Rita Vrataski (Emily Blunt), una guerrera de las Fuerzas Especiales. Adaptación del manga de Hiroshi Sakurazaka. Título: Al filo del mañana Título original: Edge of Tomorrow País: USA Estreno en USA: 06/06/2014 Estreno en España: 30/05/2014 Productora: Warner Bros. Pictures Director: Doug Liman Guión: Dante Harper, Joby Harold Reparto: Tom Cruise, Emily Blunt, Bill Paxton, Charlotte Riley, Lee Asquith-Coe, Jonas Armstrong, Kick Gurry, Tony Way, Dragomir Mrsic, Franz Drameh, Deborah Rosan, Seelan Gunaseelan, Marco Flammer Calificación: No recomendada para menores de 12 años Calidad de Video: WEBRip XviD 720x304 Calidad de Audio: Castellano MiC DubbeD 2.0 HQ 256kbps Tamaño: 1.78 1 Link y links Intercambiables http://gpaste.us/8aa38e39
  13. En el apogeo de su carrera, el escritor Charles Dickens, casado y con 46 años, conoce a una joven de 18 que se convierte en su amante secreta hasta su muerte. Adaptación de la novela de Claire Tomalin. Título original The Invisible Woman Año 2013 Duración 111 min. País Reino Unido Director Ralph Fiennes Guión Abi Morgan (Novela: Claire Tomalin) Música Ilan Eshkeri Fotografía Rob Hardy Reparto Ralph Fiennes, Felicity Jones, Michelle Fairley, Kristin Scott Thomas, Tom Hollander, Perdita Weeks, Tom Burke Productora BBC Films / Headline Pictures / Magnolia Mae Films Género Romance. Drama | Drama romántico. Biográfico. Literatura. Siglo XIX CALIDAD DE VIDEO: BDRip m1080p CALIDAD DE AUDIO: Castellano AC3 5.1 by Santorun1 / Ingles AC3 5.1 Subs: Forzados Español. Completos Español e Ingles. TAMAÑO: 3.8 GB. Mediainfo General Format : Matroska Format version : Version 2 File size : 3.74 GiB Duration : 1h 51mn Overall bit rate mode : Variable Overall bit rate : 4 799 Kbps Encoded date : UTC 2014-09-02 22:46:50 Writing application : mkvmerge v5.7.0 ('The Whirlwind') built on Jul 8 2012 20:08:51 Writing library : libebml v1.2.3 + libmatroska v1.3.0 Video ID : 1 Format : AVC Format/Info : Advanced Video Codec Format profile : [email protected] Format settings, CABAC : Yes Format settings, ReFrames : 3 frames Codec ID : V_MPEG4/ISO/AVC Duration : 1h 51mn Bit rate mode : Variable Bit rate : 3 424 Kbps Maximum bit rate : 7 000 Kbps Width : 1 920 pixels Height : 800 pixels Display aspect ratio : 2.40:1 Frame rate mode : Constant Frame rate : 23.976 fps Color space : YUV Chroma subsampling : 4:2:0 Bit depth : 8 bits Scan type : Progressive Bits/(Pixel*Frame) : 0.093 Stream size : 2.67 GiB (71%) Default : Yes Forced : No Color primaries : BT.709 Transfer characteristics : BT.709 Matrix coefficients : BT.709 Audio #1 ID : 2 Format : AC-3 Format/Info : Audio Coding 3 Mode extension : CM (complete main) Format settings, Endianness : Big Codec ID : A_AC3 Duration : 1h 51mn Bit rate mode : Constant Bit rate : 640 Kbps Channel(s) : 6 channels Channel positions : Front: L C R, Side: L R, LFE Sampling rate : 48.0 KHz Bit depth : 16 bits Compression mode : Lossy Stream size : 510 MiB (13%) Language : Spanish Default : Yes Forced : No Audio #2 ID : 3 Format : AC-3 Format/Info : Audio Coding 3 Mode extension : CM (complete main) Format settings, Endianness : Big Codec ID : A_AC3 Duration : 1h 51mn Bit rate mode : Constant Bit rate : 640 Kbps Channel(s) : 6 channels Channel positions : Front: L C R, Side: L R, LFE Sampling rate : 48.0 KHz Bit depth : 16 bits Compression mode : Lossy Stream size : 510 MiB (13%) Language : English Default : No Forced : No Text #1 ID : 4 Format : UTF-8 Codec ID : S_TEXT/UTF8 Codec ID/Info : UTF-8 Plain Text Language : Spanish Default : Yes Forced : Yes Text #2 ID : 5 Format : UTF-8 Codec ID : S_TEXT/UTF8 Codec ID/Info : UTF-8 Plain Text Language : Spanish Default : No Forced : No Text #3 ID : 6 Format : UTF-8 Codec ID : S_TEXT/UTF8 Codec ID/Info : UTF-8 Plain Text Language : English Default : No Forced : No 1 Link y links Intercambiables http://gpaste.us/117cc7ab
  14. La ardilla Surly y su amigo Buddy planean dar el gran golpe de su vida a una tienda de frutos secos. Prácticamente sin darse cuenta, se ven enfrascados en el atraco a un banco que planean a su vez unos gángsters. Operación Cacahuete es una divertida comedia de aventuras para toda la familia. Título: Operación Cacahuete Título original: The Nut Job País: Canadá, Corea del Sur Estreno en USA: 17/01/2014 Estreno en España: 22/08/2014 Productora: Gulfstream Pictures, Red Rover International, ToonBox Entertainment Director: Peter Lepeniotis Guión: Peter Lepeniotis, Lorne Cameron Reparto: (Voces de) Liam Neeson, Katherine Heigl, Will Arnett, Brendan Fraser, Stephen Lang, Maya Rudolph, Jeff Dunham, Gabriel Iglesias, Sarah Gadon, James Rankin, Scott Yaphe, Joe Pingue, Annick Obonsawin, Julie Lemieux, Robert Tinkler Calificación: Apta para todos los públicos Calidad de Video: BDRip x264 1080p 1920x1036 Calidad de Audio: Castellano LiNE 2.0 HQ 320kbps Tamaño: 4.40 GB 1 Link y links Intercambiables http://gpaste.us/6ca3b269
  15. Después de que Albert (MacFarlane) se eche atrás en un duelo de pistolas, su veleidosa novia le deja por otro. No tarda en aparecer una mujer a caballo, tan bella como misteriosa, que le ayudará a encontrar el valor. Cuando empiezan a enamorarse, llega el marido, un conocido forajido, decidido a vengarse. El ovejero no tendrá más remedio que poner a prueba su recién encontrado coraje. Título: Mil maneras de morder el polvo Título original: A Million Ways to Die in the West País: USA Estreno en USA: 30/05/2014 Estreno en España: 04/07/2014 Productora: Universal Pictures Director: Seth MacFarlane Guión: Seth MacFarlane, Alex Sulkin, Wellesley Wild Reparto: Seth MacFarlane, Charlize Theron, Amanda Seyfried, Neil Patrick Harris, Liam Neeson, Giovanni Ribisi, Sarah Silverman Calificación: No recomendada para menores de 16 años Calidad de Video: WEB-DL x264 1080p 1916x784 Calidad de Audio: Castellano LiNE 2.0 HQ 320kbps Subtitulos: Forzados español en SRT Tamaño: 3.90 GB 1 Link y links Intercambiables http://gpaste.us/8f7e0e6f
×
×
  • Create New...