Jump to content

Crusha

Moderador
  • Content Count

    4,707
  • Joined

  • Last visited

Community Reputation

71 Excelente

About Crusha

Información Personal

  • Pais
    Chile
  • Genero
    Hombre

Recent Profile Visitors

6,039 profile views
  1. Topic 2016   Estimados las reglas son claras, esta prohibido insultar, menospreciar, humillar a cualquier usuario en el foro, si tiene algún problema hágalo saber con el botón ''Reportar'' Esta prohibido, hablar de ventas/compras o temas no relacionados con el topic. Se resolverán dudas, consultas, pataleos, etc.   >>> Pagina oficial Freesky (Actualizaciones) <<<   [SPOILER] http://freeskytv.sytes.net/forum/ http://www.freesky.tv/ [/SPOILER]   Topic Anterior   >>> http://www.chilecomparte.cl/foros/topic/2340619-receptores-satelitales-freeskypanthersky-60/page-99
  2. Topic 2016 Estimados las reglas son claras, esta prohibido insultar, menospreciar, humillar a cualquier usuario en el foro, si tiene algún problema hágalo saber con el botón ''Reportar'' Esta prohibido, hablar de ventas/compras o temas no relacionados con el topic. Se resolverán dudas, consultas, pataleos, etc. >>> Pagina oficial Azamerica (Actualizaciones) <<< Topic Anterior >>> http://www.chilecomparte.cl/foros/topic/2358095-receptores-satelitales-az-america-v16/page-42
  3.   [SPOILER] General ID                             : 1 (0x1) Complete name                  : H:\SQ Serie\Scream Queens S01E12-E13 (FOX.HD.1080i.DD5.1).-Crusha.ts Format                         : MPEG-TS File size                      : 1.86 GiB Duration                       : 1h 25mn Overall bit rate mode          : Variable Overall bit rate               : 3 110 Kbps   Video ID                             : 2753 (0xAC1) Menu ID                        : 841 (0x349) Format                         : AVC Format/Info                    : Advanced Video Codec Format profile                 : [email protected] Format settings, CABAC         : Yes Format settings, ReFrames      : 4 frames Codec ID                       : 27 Duration                       : 1h 25mn Bit rate                       : 2 569 Kbps Width                          : 1 920 pixels Height                         : 1 080 pixels Display aspect ratio           : 16:9 Frame rate                     : 29.970 fps Standard                       : Component Color space                    : YUV Chroma subsampling             : 4:2:0 Bit depth                      : 8 bits Scan type                      : MBAFF Scan order                     : Top Field First Bits/(Pixel*Frame)             : 0.041 Stream size                    : 1.53 GiB (83%) Color range                    : Limited Color primaries                : BT.709 Transfer characteristics       : BT.709 Matrix coefficients            : BT.709   Audio ID                             : 3753 (0xEA9) Menu ID                        : 841 (0x349) Format                         : AC-3 Format/Info                    : Audio Coding 3 Mode extension                 : CM (complete main) Format settings, Endianness    : Big Codec ID                       : 6 Duration                       : 1h 25mn Bit rate mode                  : Constant Bit rate                       : 384 Kbps Channel(s)                     : 6 channels Channel positions              : Front: L C R, Side: L R, LFE Sampling rate                  : 48.0 KHz Bit depth                      : 16 bits Compression mode               : Lossy Stream size                    : 235 MiB (12%) Language                       : English [/SPOILER]   [hide] https://mega.nz/#!rNtFDZRa!O-NqBM2iUDujY8WH5YRUJd4O7OPbTwMw9zMSCFv5UEY https://mega.nz/#!qZlTXJ6T!qeaiXy8JCUqxPu-w80dkoNGfs5p6rjKCJYZ2T9-dfjg https://mega.nz/#!rAl3CIqb!bzMat09mQg5o5ISdsv2TSi9QYVMcjYneV_H53YHuJ_U https://mega.nz/#!yUlyCJgQ!f98kQRgClff-LvwyHd8APqpI6FnTself-0uYxMy4xJM [/hide]     Password: crusha   Final de Temporada Doble episodio
  4. Continuamos aqui chicos. Topic Anterior >>> http://www.chilecomparte.cl/foros/topic/2236664-novedades-satelital/page-107 No preguntas, solo novedades en general con respecto a FTA u otros. Nuevo TP: 11175 H 28887 Canales brazucas hasta el momento, todos codificados, solo 1 FTA. Saludos.
×
×
  • Create New...