Jump to content

Los Autos Locos [1968 DVDRIP Castellano Animacion]


Recommended Posts

6bR9WEW.jpg

Título original
Wacky Races (TV Series)
Año
1968
Duración
30 min.
País
Estados Unidos Estados Unidos
Dirección
William Hanna, Joseph Barbera, Charles A. Nichols
Guion
Larz Bourne, Tom Dagenais, Michael Maltese, Dalton Sandifer
Música
Hoyt S. Curtin
Fotografía
Animation, George Epperson, Charles Flekal, Frank Parrish, Cliff Shirpser, Clarence Wogatzke
Reparto
Animation
Productora
Emitida por CBS; Hanna-Barbera Productions / Merrill Heatter-Bob Quigley Productions
Género
Serie de TV. Animación. Comedia. Infantil | Coches / Automovilismo
Sinopsis
Serie de TV (1968-1969). 17 episodios (cada uno de los cuales incluía dos carreras distintas, haciendo un total de 34 carreras). "Los autos locos" es una serie de dibujos animados de la productora estadounidense Hanna-Barbera sobre un grupo de once coches de carrera que compiten entre sí en diferentes rallies, con sus pilotos intentando ganar el título de «Piloto Más Loco del Mundo». La serie era inusual por el gran número de personajes habituales, veintitrés en total, entre los que se incluia el villano Pierre Nodoyuna y su perro, Patán. [extraído de Wikipedia]

Format : MPEG-PS
File size : 114 MiB
Duration : 11 min 28 s
Overall bit rate mode : Constant
Overall bit rate : 1 395 kb/s
Writing library : encoded by TMPGEnc (ver. 2.524.63.181)

Video
ID : 224 (0xE0)
Format : MPEG Video
Format version : Version 1
Format settings : BVOP
Format settings, BVOP : Yes
Format settings, Matrix : Default
Format settings, GOP : Variable
Duration : 11 min 28 s
Bit rate mode : Constant
Bit rate : 1 150 kb/s
Width : 352 pixels
Height : 288 pixels
Display aspect ratio : 4:3
Frame rate : 25.000 FPS
Standard : PAL
Color space : YUV
Chroma subsampling : 4:2:0
Bit depth : 8 bits
Scan type : Progressive
Compression mode : Lossy
Bits/(Pixel*Frame) : 0.454
Time code of first frame : 00:00:00:00
Time code source : Group of pictures header
Stream size : 93.8 MiB (82%)
Writing library : TMPGEnc 2.524.63.181

Audio
ID : 192 (0xC0)
Format : MPEG Audio
Format version : Version 1
Format profile : Layer 2
Duration : 11 min 28 s
Bit rate mode : Constant
Bit rate : 224 kb/s
Channel(s) : 2 channels
Sampling rate : 44.1 kHz
Frame rate : 38.281 FPS (1152 SPF)
Compression mode : Lossy
Stream size : 18.4 MiB (16%)

http://www.mexashare.com/qqkkxy3nojiw/Los_Autos_Locos.part1.rar.html
http://www.mexashare.com/udgnra19ruw5/Los_Autos_Locos.part2.rar.html
http://www.mexashare.com/b0k6ueefteb6/Los_Autos_Locos.part3.rar.html
http://www.mexashare.com/rciu9zsebs7l/Los_Autos_Locos.part4.rar.html
http://www.mexashare.com/2afrasyd1zz3/Los_Autos_Locos.part5.rar.html

ENLACES INTERCAMBIABLES

http://ul.to/z96a04at
http://ul.to/9idiqq2o
http://ul.to/hxlil64b
http://ul.to/rebech13
http://ul.to/85edg9t0

Link to comment
Share on other sites

Create an account or sign in to comment

You need to be a member in order to leave a comment

Create an account

Sign up for a new account in our community. It's easy!

Register a new account

Sign in

Already have an account? Sign in here.

Sign In Now
 Share

×
×
  • Create New...