Jump to content

Casper [1995 DVDRIP Castellano Comedia]


M_A_D
 Share

Recommended Posts

6ikGvKI.jpg

Título original
Casper
Año
1995
Duración
96 min.
País
Estados Unidos Estados Unidos
Dirección
Brad Silberling
Guion
Sherri Stoner, Deanna Oliver
Música
James Horner
Fotografía
Dean Cundey
Reparto
Bill Pullman, Christina Ricci, Eric Idle, Cathy Moriarty, Amy Brenneman, Ben Stein, Devon Sawa, Don Novello, Wesley Thompson, Dan Aykroyd, Clint Eastwood, Mel Gibson
Productora
Universal Pictures / Amblin Entertainment / The Harvey Entertainment Company
Género
Fantástico. Comedia. Infantil | Sobrenatural. Casas encantadas. Fantasmas. Comedia de terror. Cine familiar
Grupos
Casper Novedad
Sinopsis
La señora Crittenden (Cathy Moriarty) contrata al doctor Harvey (BIll Pullman) para que libere su mansión de los cuatro fantasmas que la habitan. Látigo, Tufo y Gordy no toleran a los mortales dentro de la casa y su negro sentido del humor ahuyenta a los más audaces. Su sobrino Casper, en cambio, es un joven amistoso que está harto de sus tíos. Harvey se presenta en la mansión con su hija Kat (Christina Ricci), una soñadora adolescente. Ella y Casper simpatizan inmediatamente, a pesar de que tienen problemas para relacionarse. De Casper huye todo el mundo porque es un fantasma; de Kat también, en cuanto se enteran de la profesión de su padre. El fantasma y la chica son dos almas gemelas que viven en continuo conflicto con sus respectivos parientes

Format : AVI
Format/Info : Audio Video Interleave
File size : 1.37 GiB
Duration : 1 h 35 min
Overall bit rate : 2 041 kb/s
Writing application : VirtualDubMod 1.5.4.1 (build 2178/release)
Writing library : VirtualDubMod build 2178/release

Video
ID : 0
Format : MPEG-4 Visual
Format profile : Advanced [email protected]
Format settings : BVOP1 / Custom Matrix
Format settings, BVOP : 1
Format settings, QPel : No
Format settings, GMC : No warppoints
Format settings, Matrix : Custom
Codec ID : XVID
Codec ID/Hint : XviD
Duration : 1 h 35 min
Bit rate : 1 650 kb/s
Width : 720 pixels
Height : 384 pixels
Display aspect ratio : 1.85:1
Frame rate : 25.000 FPS
Color space : YUV
Chroma subsampling : 4:2:0
Bit depth : 8 bits
Scan type : Progressive
Compression mode : Lossy
Bits/(Pixel*Frame) : 0.239
Stream size : 1.11 GiB (81%)
Writing library : XviD 1.3.0.dev55

Audio
ID : 1
Format : AC-3
Format/Info : Audio Coding 3
Codec ID : 2000
Duration : 1 h 35 min
Bit rate mode : Constant
Bit rate : 384 kb/s
Channel(s) : 6 channels
Channel positions : Front: L C R, Side: L R, LFE
Sampling rate : 48.0 kHz
Frame rate : 31.250 FPS (1536 SPF)
Bit depth : 16 bits
Compression mode : Lossy
Stream size : 263 MiB (19%)
Alignment : Split accross interleaves
Interleave, duration : 96 ms (2.40 video frames)
Interleave, preload duratio : 96 ms
Language : Espanol
Service kind : Complete Main

http://zipansion.com/2c0qR

Link to comment
Share on other sites

Create an account or sign in to comment

You need to be a member in order to leave a comment

Create an account

Sign up for a new account in our community. It's easy!

Register a new account

Sign in

Already have an account? Sign in here.

Sign In Now
 Share

×
×
  • Create New...