Jump to content

Mary Poppins [1964 DVDRIP Castellano Comedia]


M_A_D
 Share

Recommended Posts

5a3B9ro.jpg

Título original
Mary Poppins
Año
1964
Duración
140 min.
País
Estados Unidos Estados Unidos
Dirección
Robert Stevenson
Guion
Bill Walsh, Don DaGradi (Historia: P.L. Travers)
Música
Richard M. Sherman, Robert B. Sherman
Fotografía
Edward Colman
Reparto
Julie Andrews, Dick van Dyke, David Tomlinson, Glynis Johns, Ed Wynn, Hermione Baddeley, Karen Dotrice, Elsa Lanchester, Arthur Treacher, Reginald Owen, Matthew Garber
Productora
Walt Disney Productions
Género
Musical. Infantil. Fantástico. Comedia | Cine familiar. Película de culto. Años 1900 (circa)
Sinopsis
Reinado de Eduardo VII (1901-1910). La vida de una familia inglesa formada por un padre banquero, una madre sufragista y dos niños rebeldes -que pretenden llamar la atención de sus padres haciendo la vida imposible a todas las niñeras-, se verá alterada con la llegada de Mary Poppins, una extravagante institutriz que baja de las nubes empleando su paraguas como paracaídas. Debut y Oscar para Julie Andrews en este clásico del cine familiar que en su día batió récords de taquilla. Una niñera mágica y canciones pegadizas que harán las delicias de los niños de la casa.

Format : AVI
Format/Info : Audio Video Interleave
File size : 1.37 GiB
Duration : 2 h 13 min
Overall bit rate : 1 465 kb/s
Writing application : VirtualDubMod 1.5.10.1 (build 2439/release)
Writing library : VirtualDubMod build 2439/release

Video
ID : 0
Format : MPEG-4 Visual
Format profile : Advanced [email protected]
Format settings : BVOP1
Format settings, BVOP : 1
Format settings, QPel : No
Format settings, GMC : No warppoints
Format settings, Matrix : Default (MPEG)
Codec ID : XVID
Codec ID/Hint : XviD
Duration : 2 h 13 min
Bit rate : 1 135 kb/s
Width : 520 pixels
Height : 304 pixels
Display aspect ratio : 1.711
Frame rate : 25.000 FPS
Color space : YUV
Chroma subsampling : 4:2:0
Bit depth : 8 bits
Scan type : Progressive
Compression mode : Lossy
Bits/(Pixel*Frame) : 0.287
Stream size : 1.06 GiB (77%)
Writing library : XviD 1.0.3 (UTC 2004-12-20)

Audio
ID : 1
Format : AC-3
Format/Info : Audio Coding 3
Codec ID : 2000
Duration : 2 h 13 min
Bit rate mode : Constant
Bit rate : 320 kb/s
Channel(s) : 6 channels
Channel positions : Front: L C R, Side: L R, LFE
Sampling rate : 48.0 kHz
Frame rate : 31.250 FPS (1536 SPF)
Bit depth : 16 bits
Compression mode : Lossy
Stream size : 306 MiB (22%)
Alignment : Split accross interleaves
Interleave, duration : 40 ms (1.00 video frame)
Interleave, preload duratio : 500 ms
Service kind : Complete Main

http://zipansion.com/2c0xw

Link to comment
Share on other sites

Create an account or sign in to comment

You need to be a member in order to leave a comment

Create an account

Sign up for a new account in our community. It's easy!

Register a new account

Sign in

Already have an account? Sign in here.

Sign In Now
 Share

×
×
  • Create New...