Jump to content
Sign in to follow this  
M_A_D

Basil El Raton Superdetective [1986 HDRIP Castellano Animaci

Recommended Posts

6Xv31Yq.jpg

Título original
The Great Mouse Detective
Año
1986
Duración
73 min.
País
Estados Unidos Estados Unidos
Dirección
John Musker, Ron Clements, Burny Mattinson, David Michener
Guion
Novela: Paul Galdone, Eve Titus
Música
Henry Mancini
Fotografía
Animation
Reparto
Animation
Productora
Walt Disney Pictures
Género
Animación. Intriga. Aventuras. Infantil | Roedores. Siglo XIX. Sherlock Holmes
Grupos
Clásicos de Walt Disney | Sherlock Holmes Novedad
Sinopsis
A finales del siglo XIX, Basil, el Sherlock Holmes del mundo de los ratones, tiene que enfrentarse a su eterno enemigo: el profesor Ratigan. La aventura comienza cuando una jovencita es raptada por el villano Ratigan. Entonces Basil y sus inseparables amigos, el Dr. Dawson y Tobi, emprenderán una apasionante misión de rescate.

Format : AVI
Format/Info : Audio Video Interleave
File size : 1.39 GiB
Duration : 1 h 11 min
Overall bit rate : 2 783 kb/s
Writing application : VirtualDubMod 1.5.4.1 (build 2178/release)
Writing library : VirtualDubMod build 2178/release

Video
ID : 0
Format : MPEG-4 Visual
Format profile : Advanced [email protected]
Format settings : BVOP1 / Custom Matrix
Format settings, BVOP : 1
Format settings, QPel : No
Format settings, GMC : No warppoints
Format settings, Matrix : Custom
Codec ID : XVID
Codec ID/Hint : XviD
Duration : 1 h 11 min
Bit rate : 2 192 kb/s
Width : 720 pixels
Height : 432 pixels
Display aspect ratio : 5:3
Frame rate : 25.000 FPS
Color space : YUV
Chroma subsampling : 4:2:0
Bit depth : 8 bits
Scan type : Progressive
Compression mode : Lossy
Bits/(Pixel*Frame) : 0.282
Stream size : 1.09 GiB (79%)
Writing library : XviD 1.2.1 (UTC 2008-12-04)

Audio #1
ID : 1
Format : AC-3
Format/Info : Audio Coding 3
Codec ID : 2000
Duration : 1 h 11 min
Bit rate mode : Constant
Bit rate : 384 kb/s
Channel(s) : 6 channels
Channel positions : Front: L C R, Side: L R, LFE
Sampling rate : 48.0 kHz
Frame rate : 31.250 FPS (1536 SPF)
Bit depth : 16 bits
Compression mode : Lossy
Stream size : 196 MiB (14%)
Alignment : Split accross interleaves
Interleave, duration : 40 ms (1.00 video frame)
Interleave, preload duratio : 500 ms
Service kind : Complete Main

Audio #2
ID : 2
Format : MPEG Audio
Format version : Version 1
Format profile : Layer 3
Format settings : Joint stereo / MS Stereo
Codec ID : 55
Codec ID/Hint : MP3
Duration : 1 h 11 min
Bit rate mode : Constant
Bit rate : 192 kb/s
Channel(s) : 2 channels
Sampling rate : 48.0 kHz
Compression mode : Lossy
Stream size : 97.8 MiB (7%)
Alignment : Aligned on interleaves
Interleave, duration : 40 ms (1.00 video frame)
Interleave, preload duratio : 504 ms

http://zipansion.com/2UTYu

Share this post


Link to post
Share on other sites

Create an account or sign in to comment

You need to be a member in order to leave a comment

Create an account

Sign up for a new account in our community. It's easy!

Register a new account

Sign in

Already have an account? Sign in here.

Sign In Now
Sign in to follow this  

×
×
  • Create New...