Jump to content
Sign in to follow this  
allps2

The walking dead t8 [HD-Itunes 720p][Dual.ac3+Sub][1.6 Gigas

Recommended Posts

the_walking_dead_tv_series_724321601_mme
 
cooltext278510508514314.png
 
Título original
The Walking Dead (TV Series)
Año
2010
Duración
45 min.
País
Estados Unidos Estados Unidos
Dirección
Robert Kirkman (Creator),  Frank Darabont,  Greg Nicotero,  Ernest R. Dickerson, Michael E. Satrazemis,  David Boyd,  Guy Ferland,  Billy Gierhart,  Michelle MacLaren, Tricia Brock,  Seith Mann,  Jeffrey F. January,  Gwyneth Horder-Payton, Daniel Sackheim,  Julius Ramsay,  Jennifer Chambers Lynch,  Alrick Riley, Johan Renck,  Phil Abraham,  Daniel Attias,  Clark Johnson,  Lesli Linka Glatter, Jeremy Podeswa,  Stefan Schwartz,  Michael Uppendahl,  Larysa Kondracki, Michael Slovis,  Stephen Williams,  Avi Youabian,  Darnell Martin, Rosemary Rodriguez,  Kari Skogland
Guion
Frank Darabont, Charles H. Eglee, Jack LoGuidice, Robert Kirkman, Glen Mazzara, Adam Fierro (Cómic: Robert Kirkman, Tony Moore, Charlie Adlard)
Música
Bear McCreary
Fotografía
Michael E. Satrazemis, Ronn Schmidt, David Boyd, Stephen Campbell, David Tattersall
Reparto
Andrew Lincoln,  Norman Reedus,  Melissa Suzanne McBride,  Lauren Cohan, Chandler Riggs,  Danai Gurira,  Jeffrey Dean Morgan,  Steven Yeun, Sarah Wayne Callies,  Sonequa Martin-Green,  Jon Bernthal,  Laurie Holden, Emily Kinney,  David Morrissey,  Austin Amelio,  Tom Payne,  Chad Coleman, Alanna Masterson,  Michael Cudlitz,  Scott Wilson,  Jeffrey DeMunn, Christian Serratos,  Josh McDermitt,  Irone Singleton,  Michael Rooker,  Seth Gilliam, Dallas Roberts,  Emma Bell,  Brighton Sharbino,  Kyla Kenedy,  Denise Crosby, Andrew J. West,  Tyler James Williams,  Madison Lintz,  Steven Ogg, Pollyanna McIntosh,  Christine Evangelista,  Xander Berkeley,  Khary Payton, Christine Woods,  Larry Gilliard Jr.,  Ross Marquand,  Tovah Feldshuh, Alexandra Breckenridge,  Austin Nichols,  Katelyn Nacon,  Brandon Fobbs, Aldis Hodge,  Melissa Ponzio,  Ann Mahoney,  Corey Hawkins,  Benedict Samuel, Noah Emmerich,  Lennie James
Productora
Emitida por AMC; Circle of Confusion / Valhalla Motion Pictures / Darkwoods Productions / AMC Studios
Género
Serie de TV. Terror. Ciencia ficción | Zombis. Futuro postapocalíptico. Gore. Cómic
Grupos
The Walking Dead | Adaptaciones de Robert Kirkman Novedad
Sinopsis
Serie de TV (2010-Actualidad). Tras un apocalipsis zombie, un grupo de supervivientes, dirigidos por el policía Rick Grimes, recorre los Estados Unidos para ponerse a salvo. Aunque el leit motiv de la serie -cuyo episodio piloto fue dirigido y escrito por Frank Darabont- sea el apocalipsis zombie, la narración se centra más en las relaciones entre los personajes, su evolución y comportamiento en las situaciones críticas. Entre ellos destaca el ayudante del sheriff de un pueblo de Georgia que entró en coma durante la catástrofe.
 
 
cooltext278510337795750.png
 
vlcsnap_2018_04_19_15h19m39s148.png
vlcsnap_2018_04_19_15h19m27s529.png
vlcsnap_2018_04_19_15h19m32s558.png
 
cooltext278510278458067.png
 
Video: HD-Itunes 720P
Audios:
Español de España Ac3 2.0
Inglés AC3 5.1
Subtitulos:
Español
Inglés
Tamaño: 1.6 Gigas
Temporada: 8
Capitulos: 16
[spoiler]
General
Unique ID                   : 247727346789475382496504858727461186878 (0xBA5E8D3094DE8F86B8BFF0BE3F946D3E)
Complete name               : E:\caminantes8x16\The walking dead 8x16 Ira.byallps2.mkv
Format                      : Matroska
Format version              : Version 4 / Version 2
File size                   : 1.64 GiB
Duration                    : 46 min 8 s
Overall bit rate mode       : Variable
Overall bit rate            : 5 095 kb/s
Movie name                  : The Walking Dead 8x16
Encoded date                : UTC 2018-04-16 22:42:43
Writing application         : mkvmerge v8.2.0 ('World of Adventure') 64bit
Writing library             : libebml v1.3.1 + libmatroska v1.4.2
 
Video
ID                          : 1
Format                      : AVC
Format/Info                 : Advanced Video Codec
Format profile              : [email protected]
Format settings, CABAC      : Yes
Format settings, ReFrames   : 5 frames
Codec ID                    : V_MPEG4/ISO/AVC
Duration                    : 46 min 8 s
Bit rate mode               : Variable
Bit rate                    : 4 454 kb/s
Maximum bit rate            : 4 500 kb/s
Width                       : 1 280 pixels
Height                      : 720 pixels
Display aspect ratio        : 16:9
Frame rate mode             : Constant
Frame rate                  : 25.000 FPS
Original frame rate         : 23.976 (24000/1001) FPS
Color space                 : YUV
Chroma subsampling          : 4:2:0
Bit depth                   : 8 bits
Scan type                   : Progressive
Bits/(Pixel*Frame)          : 0.193
Stream size                 : 1.44 GiB (87%)
Title                       : The Walking Dead 8x16
Language                    : English
Default                     : Yes
Forced                      : No
Color range                 : Limited
Color primaries             : BT.709
Transfer characteristics    : BT.709
Matrix coefficients         : BT.709
 
Audio #1
ID                          : 2
Format                      : AC-3
Format/Info                 : Audio Coding 3
Mode extension              : CM (complete main)
Format settings, Endianness : Big
Codec ID                    : A_AC3
Duration                    : 46 min 8 s
Bit rate mode               : Constant
Bit rate                    : 192 kb/s
Channel(s)                  : 2 channels
Channel positions           : Front: L R
Sampling rate               : 48.0 kHz
Frame rate                  : 31.250 FPS (1536 spf)
Bit depth                   : 16 bits
Compression mode            : Lossy
Stream size                 : 63.4 MiB (4%)
Title                       : AC3 2.0 @ 192 kbps
Language                    : Spanish
Default                     : Yes
Forced                      : No
 
Audio #2
ID                          : 3
Format                      : AC-3
Format/Info                 : Audio Coding 3
Mode extension              : CM (complete main)
Format settings, Endianness : Big
Codec ID                    : A_AC3
Duration                    : 46 min 8 s
Bit rate mode               : Constant
Bit rate                    : 448 kb/s
Channel(s)                  : 6 channels
Channel positions           : Front: L C R, Side: L R, LFE
Sampling rate               : 48.0 kHz
Frame rate                  : 31.250 FPS (1536 spf)
Bit depth                   : 16 bits
Compression mode            : Lossy
Stream size                 : 148 MiB (9%)
Title                       : AC3 5.1 @ 384 kbps
Language                    : English
Default                     : No
Forced                      : No
 
Text #1
ID                          : 4
Format                      : UTF-8
Codec ID                    : S_TEXT/UTF8
Codec ID/Info               : UTF-8 Plain Text
Duration                    : 43 min 57 s
Bit rate                    : 42 b/s
Count of elements           : 414
Stream size                 : 13.7 KiB (0%)
Title                       : subs español
Language                    : Spanish
Default                     : No
Forced                      : No
 
Text #2
ID                          : 5
Format                      : UTF-8
Codec ID                    : S_TEXT/UTF8
Codec ID/Info               : UTF-8 Plain Text
Duration                    : 45 min 25 s
Bit rate                    : 46 b/s
Count of elements           : 738
Stream size                 : 15.3 KiB (0%)
Title                       : subs ingles
Language                    : English
Default                     : No
Forced                      : No
 
 
[/spoiler]
 
22.png
cooltext282663437859432.png
 
cooltext278510542278488.png
 
cooltext281807730587533.png
 
http://ilibro.com/1ec391
https://pastebin.com/HrDRiygd
 

Share this post


Link to post
Share on other sites

Create an account or sign in to comment

You need to be a member in order to leave a comment

Create an account

Sign up for a new account in our community. It's easy!

Register a new account

Sign in

Already have an account? Sign in here.

Sign In Now
Sign in to follow this  

×
×
  • Create New...