Jump to content
Sign in to follow this  
allps2

The Big Bang Theory T11 [HD-Itunes 720P][Dual.Ac3+Sub][675 M

Recommended Posts

 
the_big_bang_theory_tv_series_289210943_
 
cooltext278510508514314.png
 
Título original
The Big Bang Theory (TV Series)
Año
2007
Duración
20 min.
País
Estados Unidos Estados Unidos
Dirección
Chuck Lorre (Creator),  Bill Prady (Creator),  Mark Cendrowski,  Anthony Rich, Peter Chakos,  Nicole Lorre,  James Burrows,  Howard Murray,  Ted Wass, Andrew D. Weyman,  Joel Murray,  Gay Linvill
Guion
Chuck Lorre, Bill Prady, Steven Molaro, Maria Ferrari, Steve Holland, Jim Reynolds, Eric Kaplan, Lee Aronsohn, David Goetsch
Música
Barenaked Ladies, Joe Fischer
Fotografía
Steven V. Silver
Reparto
Johnny Galecki,  Jim Parsons,  Kaley Cuoco,  Simon Helberg,  Kunal Nayyar, Melissa Rauch,  Mayim Bialik,  Sara Gilbert,  Kevin Sussman,  John Ross Bowie, Carol Ann Susi,  Aarti Mann,  Brian George,  Wil Wheaton,  Laurie Metcalf, Christine Baranski,  Kate Micucci,  Casey Sander
Productora
Emitida por CBS; Warner Bros. Television
Género
Serie de TV. Comedia | Sitcom. Amistad. Matemáticas
Sinopsis
Serie de TV (2007-Actualidad). Leonard (Johnny Galecki) y Sheldon (Jim Parsons) son dos cerebros privilegiados que comparten piso. Aunque los dos, doctores en Física, son capaces de calcular las probabilidades de existencia de otros mundos, no saben cómo relacionarse con los demás, especialmente con las chicas. Penny (Kaley Cuoco), una vecina recién llegada, es el polo opuesto a los dos amigos, de modo que su llegada altera la tranquila vida sentimental de Leonard y el desorden obsesivo-compulsivo de Sheldon.
 
cooltext278510337795750.png
 
vlcsnap_2018_04_02_11h41m16s038.png
vlcsnap_2018_04_02_11h41m24s579.png
vlcsnap_2018_04_02_11h41m30s503.png
 
cooltext278510278458067.png
 
[spoiler]
General
Unique ID                   : 238076599252156764580780600397892538215 (0xB31BE2999164B914AA667D2EF3F9CF67)
Complete name               : E:\BBTHRY11x01\Big Bang 11x01 La Propuesta Propuesta.byallps2.mkv
Format                      : Matroska
Format version              : Version 4 / Version 2
File size                   : 674 MiB
Duration                    : 19 min 45 s
Overall bit rate            : 4 771 kb/s
Encoded date                : UTC 2018-04-01 22:18:17
Writing application         : mkvmerge v6.4.1 ('Omega Point') built on Sep 16 2013 22:05:10
Writing library             : libebml v1.3.0 + libmatroska v1.4.1
 
Video
ID                          : 1
Format                      : AVC
Format/Info                 : Advanced Video Codec
Format profile              : [email protected]
Format settings, CABAC      : Yes
Format settings, ReFrames   : 5 frames
Codec ID                    : V_MPEG4/ISO/AVC
Duration                    : 19 min 45 s
Bit rate                    : 4 000 kb/s
Width                       : 1 280 pixels
Height                      : 720 pixels
Display aspect ratio        : 16:9
Original display aspect rat : 16:9
Frame rate mode             : Constant
Frame rate                  : 25.000 FPS
Color space                 : YUV
Chroma subsampling          : 4:2:0
Bit depth                   : 8 bits
Scan type                   : Progressive
Bits/(Pixel*Frame)          : 0.174
Stream size                 : 552 MiB (82%)
Title                       : Big Bang 11x01 La Propuesta Propuesta
Writing library             : x264 core 129 r2230 1cffe9f
Encoding settings           : cabac=1 / ref=5 / deblock=1:0:0 / analyse=0x3:0x113 / me=hex / subme=8 / psy=1 / psy_rd=1.00:0.00 / mixed_ref=1 / me_range=16 / chroma_me=1 / trellis=2 / 8x8dct=1 / cqm=0 / deadzone=21,11 / fast_pskip=1 / chroma_qp_offset=-2 / threads=12 / lookahead_threads=2 / sliced_threads=0 / nr=0 / decimate=1 / interlaced=0 / bluray_compat=0 / constrained_intra=0 / bframes=4 / b_pyramid=2 / b_adapt=1 / b_bias=0 / direct=3 / weightb=1 / open_gop=0 / weightp=2 / keyint=250 / keyint_min=25 / scenecut=40 / intra_refresh=0 / rc_lookahead=50 / rc=2pass / mbtree=1 / bitrate=4000 / ratetol=1.0 / qcomp=0.60 / qpmin=0 / qpmax=69 / qpstep=4 / cplxblur=20.0 / qblur=0.5 / vbv_maxrate=62500 / vbv_bufsize=78125 / nal_hrd=none / ip_ratio=1.40 / aq=1:1.00
Language                    : English
Default                     : Yes
Forced                      : No
Statistics Tags Issue       : mkvmerge v7.0.0 ('Where We Going') 32bit built on Jun  9 2014 15:08:34 2017-09-28 12:54:25 / mkvmerge v6.4.1 ('Omega Point') built on Sep 16 2013 22:05:10 2018-04-01 22:18:17
FromStats_BitRate           : 4000338
FromStats_Duration          : 00:19:45.360000000
FromStats_FrameCount        : 29634
FromStats_StreamSize        : 592730126
 
Audio #1
ID                          : 2
Format                      : AC-3
Format/Info                 : Audio Coding 3
Mode extension              : CM (complete main)
Format settings, Endianness : Big
Codec ID                    : A_AC3
Duration                    : 19 min 45 s
Bit rate mode               : Constant
Bit rate                    : 384 kb/s
Channel(s)                  : 2 channels
Channel positions           : Front: L R
Sampling rate               : 48.0 kHz
Frame rate                  : 31.250 FPS (1536 spf)
Bit depth                   : 16 bits
Compression mode            : Lossy
Stream size                 : 54.3 MiB (8%)
Title                       : Castellano
Language                    : Spanish
Default                     : Yes
Forced                      : No
 
Audio #2
ID                          : 3
Format                      : AC-3
Format/Info                 : Audio Coding 3
Mode extension              : CM (complete main)
Format settings, Endianness : Big
Codec ID                    : A_AC3
Duration                    : 19 min 45 s
Bit rate mode               : Constant
Bit rate                    : 384 kb/s
Channel(s)                  : 6 channels
Channel positions           : Front: L C R, Side: L R, LFE
Sampling rate               : 48.0 kHz
Frame rate                  : 31.250 FPS (1536 spf)
Bit depth                   : 16 bits
Compression mode            : Lossy
Stream size                 : 54.3 MiB (8%)
Title                       : Ingles
Language                    : English
Default                     : No
Forced                      : No
 
Text #1
ID                          : 4
Format                      : UTF-8
Codec ID                    : S_TEXT/UTF8
Codec ID/Info               : UTF-8 Plain Text
Title                       : Castellano
Language                    : Spanish
Default                     : No
Forced                      : No
 
Text #2
ID                          : 5
Format                      : UTF-8
Codec ID                    : S_TEXT/UTF8
Codec ID/Info               : UTF-8 Plain Text
Title                       : Ingles
Language                    : English
Default                     : No
Forced                      : No
 
[/spoiler]
 
Video: HD-Itunes 720P
Audios:
Español de España AC3 2.0
Inglés AC3 5.1
Subtitulos:
Español
Inglés
Tamaño: 675 Megas
Temporada: 11
Capitulos: 24
 
22.png
cul.png
 
cooltext278510542278488.png
 
Capitulos 1-17:
_______________
http://subedlc.com/view0.php?url=7f8fa9cb2d7b0b7c5e5c364d3ae9bf92
https://pastebin.com/bK7Stm89
http://textsnip.com/0kw0ce
http://ilibro.com/18e99d
 

Share this post


Link to post
Share on other sites

Create an account or sign in to comment

You need to be a member in order to leave a comment

Create an account

Sign up for a new account in our community. It's easy!

Register a new account

Sign in

Already have an account? Sign in here.

Sign In Now
Sign in to follow this  

×
×
  • Create New...