Jump to content

Dinero sucio (2018) [webdl 720p][06/06][Castellano][UL]


Tortoroso
 Share

Recommended Posts

MV5_BNTA2_Nm_Zh_Zj_Et_MWU2_NS00_Mm_E.jpg
FICHA TÉCNICA DE LA SERIE
Título original: Dirty Money.
Año de producción: 2018.
Capítulos: 6.
Argumento: Una serie original de Netflix que documenta varias historias sobre la exposición de la codicia, la corrupción y la propagación del crimen a través de la economía global.
FICHA TÉCNICA TEMPORADA
Temporada: Única.
Capítulos: 6.
Duración: 65 minutos.
Idioma: Castellano.
Fecha de lanzamiento:26 de enero de 2018
País: Estados Unidos
98gephve.gif

 

Emisiones_de_nox_capitulo_1_Snapshot.jpg

tvknqrds.gif

Format : MPEG-4

Format profile : Base Media
Codec ID : isom (isom/avc1)
File size : 1.44 GiB
Duration : 1 h 13 min
Overall bit rate mode : Variable
Overall bit rate : 2 812 kb/s
Encoded date : UTC 2018-01-28 07:10:35
Tagged date : UTC 2018-01-28 07:10:35
Writing application : FormatFactory
Video
ID : 1
Format : AVC
Format/Info : Advanced Video Codec
Format profile : [email protected]
Format settings : 1 Ref Frames
Format settings, CABAC : No
Format settings, ReFrames : 1 frame
Codec ID : avc1
Codec ID/Info : Advanced Video Coding
Duration : 1 h 13 min
Bit rate : 2 660 kb/s
Maximum bit rate : 13.4 Mb/s
Width : 1 280 pixels
Height : 720 pixels
Display aspect ratio : 16:9
Frame rate mode : Constant
Frame rate : 25.000 FPS
Color space : YUV
Chroma subsampling : 4:2:0
Bit depth : 8 bits
Scan type : Progressive
Bits/(Pixel*Frame) : 0.115
Stream size : 1.38 GiB (95%)
Writing library : x264 core 148 r2665 a01e339
Encoding settings : cabac=0 / ref=1 / deblock=1:0:0 / analyse=0x3:0x113 / me=hex / subme=7 / psy=1 / psy_rd=1.00:0.00 / mixed_ref=0 / me_range=16 / chroma_me=1 / trellis=1 / 8x8dct=1 / cqm=0 / deadzone=21,11 / fast_pskip=1 / chroma_qp_offset=-2 / threads=6 / lookahead_threads=1 / sliced_threads=0 / nr=0 / decimate=1 / interlaced=0 / bluray_compat=0 / constrained_intra=0 / bframes=0 / weightp=2 / keyint=250 / keyint_min=25 / scenecut=40 / intra_refresh=0 / rc_lookahead=40 / rc=abr / mbtree=1 / bitrate=2660 / ratetol=1.0 / qcomp=0.60 / qpmin=0 / qpmax=69 / qpstep=4 / ip_ratio=1.40 / aq=1:1.00
Encoded date : UTC 2018-01-28 07:10:35
Tagged date : UTC 2018-01-28 07:10:49
Audio
ID : 2
Format : AAC
Format/Info : Advanced Audio Codec
Format profile : LC
Codec ID : mp4a-40-2
Duration : 1 h 13 min
Bit rate mode : Variable
Bit rate : 126 kb/s
Maximum bit rate : 190 kb/s
Channel(s) : 2 channels
Channel positions : Front: L R
Sampling rate : 44.1 kHz
Frame rate : 43.066 FPS (1024 SPF)
Compression mode : Lossy
Stream size : 66.0 MiB (4%)
Encoded date : UTC 2018-01-28 07:10:47
Tagged date : UTC 2018-01-28 07:10:49

Emisiones de nox capitulo 1
Gibney revela nuevos e impactantes detalles sobre el engaño corporativo de VW, y expone la impía alianza entre gobiernos y fabricantes de automóviles que permitió al fabricante de autos poner en riesgo decenas de miles de vidas, todo por el bien de una parte de $ 500.
qblhfjzs.png
Prestamo a corto plazo capitulo 2
Dirigiéndose a estadounidenses desprevenidos, un grupo de prestamistas del día de pago hizo millones de pequeños préstamos con cargos no divulgados, tasas de interés infladas y reglas incomprensibles. Pero la forma en que se redactan las leyes, ¿es un crimen o solo un negocio?
qblhfjzs.png
Venta en corto y farmaceiticas capitulo 3
Los vendedores en corto de Wall Street exponen una estafa que los reguladores pasan por alto: cómo Big Pharma saca a los pacientes que necesitan medicamentos que salvan vidas.
qblhfjzs.png
El banco de los carteles capitulo 4
Durante décadas, HSBC, uno de los bancos más grandes del mundo, lavó cientos de millones de dólares para los cárteles de la droga mexicanos. La senadora Elizabeth Warren, los periodistas y fiscales obstinados intentan hacer que los banqueros rindan cuentas.
qblhfjzs.png
El robo del sirope de arce capitulo 5
En Canadá, el jarabe de arce vale más que el petróleo. Cuando se pierden $ 20 millones de jarabe, el camino conduce a una batalla épica entre los carteles y el hombre pequeño.
qblhfjzs.png
El charlatan capitulo 6
Tejiendo un tapiz de cuentos en los auges y caídas de bienes raíces, Stevens expone cómo la carrera comercial de Donald Trump se transformó de fracasos épicos en una consumada máquina de branding que lo impulsó a ocupar el cargo.
qblhfjzs.png

 

Link to comment
Share on other sites

Create an account or sign in to comment

You need to be a member in order to leave a comment

Create an account

Sign up for a new account in our community. It's easy!

Register a new account

Sign in

Already have an account? Sign in here.

Sign In Now
 Share

×
×
  • Create New...