Jump to content

Garzón y Assange. El juez y el rebelde [DVBRip]


Tortoroso
 Share

Recommended Posts

hrh.png
FICHA TÉCNICA

Título: Garzón y Assange. El juez y el rebelde.

Año de producción: 2017.

Dirección: Clara López Rubio y Juan Pancorbo.

Nacionalidad: España y Alemania.

Género: Documental.

Episodios: 1.

Duración: 90 min.

Canal: Historia.

Emisión: 01-07-2017.

Argumento:

Seis países. Dos sistemas jurídicos. Un caso inédito. Desde que en 2012 Baltasar Garzón asumiera la defensa de Julian Assange, el talento y la capacidad del exjuez han estado sometidos a prueba. El equipo jurídico tuvo que buscar, siempre en secreto, nuevas estrategias para defender al activista más famoso del mundo. Han ganado varias batallas, pero nadie sabe cómo terminará la guerra. Para el controvertido Garzón, que se atrevió a perseguir a Pinochet, aceptar a Assange como cliente fue algo “simplemente natural” una vez comprobó que sus vidas habían discurrido por caminos similares: ambos se metieron en problemas cuando lucharon apasionadamente por una idea. A partir de un acceso privilegiado a sus protagonistas y a imágenes inéditas dentro de la embajada de Ecuador en Londres, Garzón y Assange. El juez y el rebelde refleja el sufrimiento y desgaste que presenta Assange, recluido en 30 metros cuadrados desde 2012 y también cómo se va diseñando la línea de defensa en un caso sin precedentes, las reuniones del equipo de abogados, su periplo por el mundo y la ofensiva en el ámbito diplomático.


Capturas :

Garzon_y_Assange._El_juez_y_el_rebelde_2



Datos:

Format : AVI


Format/Info : Audio Video Interleave

File size : 1.09 GiB

Duration : 1 h 30 min

Overall bit rate : 1 740 kb/s

Movie name : Garzon y Assange. El juez y el rebelde [2017] [DVBRip][spanish][grupots]

Writing library : VirtualDub build 35491/release


Video

ID : 0

Format : MPEG-4 Visual

Format profile : Advanced [email protected]

Format settings, BVOP : 2

Format settings, QPel : No

Format settings, GMC : No warppoints

Format settings, Matrix : Default (MPEG)

Codec ID : XVID

Codec ID/Hint : XviD

Duration : 1 h 30 min

Bit rate : 1 600 kb/s

Width : 720 pixels

Height : 400 pixels

Display aspect ratio : 16:9

Frame rate : 30.000 FPS

Color space : YUV

Chroma subsampling : 4:2:0

Bit depth : 8 bits

Scan type : Progressive

Compression mode : Lossy

Bits/(Pixel*Frame) : 0.185

Stream size : 1.01 GiB (92%)

Writing library : XviD 1.2.1 (UTC 2008-12-04)


Audio

ID : 1

Format : MPEG Audio

Format version : Version 1

Format profile : Layer 3

Mode : Joint stereo

Mode extension : MS Stereo

Codec ID : 55

Codec ID/Hint : MP3

Duration : 1 h 29 min

Bit rate mode : Constant

Bit rate : 128 kb/s

Channel(s) : 2 channels

Sampling rate : 48.0 kHz

Compression mode : Lossy

Stream size : 82.4 MiB (7%)

Alignment : Split accross interleaves

Interleave, duration : 33 ms (1.00 video frame)

Interleave, preload duratio : 500 ms

Writing library : LAME3.99r

Encoding settings : -m j -V 4 -q 2 -lowpass 17 -b 128



qblhfjzs.png




Link to comment
Share on other sites

Create an account or sign in to comment

You need to be a member in order to leave a comment

Create an account

Sign up for a new account in our community. It's easy!

Register a new account

Sign in

Already have an account? Sign in here.

Sign In Now
 Share

×
×
  • Create New...