Ir a contenido


Foto

300 Rise of an Empire [2014][3D H-SBS 1080p]

300 Rise an Empire 2014

  • Please log in to reply
No hay respuestas en este tema

#1 pomposos

pomposos
  • Pais:Argentina
  • Sexo:Hombre

Escrito 02 de mayo de 2017 - 08:28


jcKmeD4.jpg

TITULO ORIGINAL: 300: Rise of an Empire
ANO: 2014
DURACION: 102 min.
PAIS: USA
DIRECTOR: Noam Murro
GUION: Zack Snyder, Kurt Johnstad (Novela grafica: Frank Miller)
REPARTO: Sullivan Stapleton, Eva Green, Rodrigo Santoro, Lena Headey, Jack O'Connell, Andrew Tiernan, David Wenham, Callan Mulvey, Andrew Pleavin, Yigal Naor, Ashraf Barhom, Vincent Walsh, Steven Cree, Trayan Milenov-Troy, Andrei Claude, Peter Ferdinando, Mark Killeen, Peter Mensah
PRODUCTORA: Atmosphere Entertainment MM / Cruel & Unusual Films / Hollywood Gang Productions / Legendary Pictures / Warner Bros. Pictures
GENERO: Accion. Belico | Antigua Grecia. Cine epico. Secuela. Spin-off. Comic. 3-D
Guerras medicas (500-479 a.C.). El general griego Temistocles lucha por conseguir la unidad de las polis griegas. El dirige las tropas griegas que se enfrentan con el ejercito persa, liderado por Xerxes y Artemisa, para impedir la invasion del pais. Spin-off de la pelicula/comic 300, basado en la novela grafica "Xerxes", de Frank Miller.

/tt1253863/?ref_=nv_sr_1


General
Format                                   : Matroska
Format version                           : Version 2
File size                                : 12.4 GiB
Duration                                 : 1h 42mn
Overall bit rate                         : 17.3 Mbps
Encoded date                             : UTC 2014-06-06 15:48:58
Writing application                      : mkvmerge v5.7.0 ('The Whirlwind') built on Jul  8 2012 20:08:51
Writing library                          : libebml v1.2.3 + libmatroska v1.3.0
Video
ID                                       : 1
Format                                   : AVC
Format/Info                              : Advanced Video Codec
Format profile                           : [email protected]
Format settings, CABAC                   : Yes
Format settings, ReFrames                : 4 frames
Format settings, GOP                     : M=7, N=9
Muxing mode                              : Header stripping
Codec ID                                 : V_MPEG4/ISO/AVC
Duration                                 : 1h 42mn
Bit rate                                 : 14.4 Mbps
Width                                    : 1 920 pixels
Height                                   : 1 080 pixels
Display aspect ratio                     : 16:9
Frame rate mode                          : Constant
Frame rate                               : 23.976 fps
Color space                              : YUV
Chroma subsampling                       : 4:2:0
Bit depth                                : 8 bits
Scan type                                : Progressive
Bits/(Pixel*Frame)                       : 0.289
Stream size                              : 10.3 GiB (83%)
Title                                    : www.club-hd.com
Writing library                          : x264 core 133 r2334 a3ac64b
Language                                 : English
Default                                  : Yes
Forced                                   : No
Audio #1
ID                                       : 2
Format                                   : AC-3
Format/Info                              : Audio Coding 3
Mode extension                           : CM (complete main)
Format settings, Endianness              : Big
Muxing mode                              : Header stripping
Codec ID                                 : A_AC3
Duration                                 : 1h 42mn
Bit rate mode                            : Constant
Bit rate                                 : 448 Kbps
Channel(s)                               : 6 channels
Channel positions                        : Front: L C R, Side: L R, LFE
Sampling rate                            : 48.0 KHz
Bit depth                                : 16 bits
Compression mode                         : Lossy
Stream size                              : 329 MiB (3%)
Title                                    : AC3 5.1
Language                                 : Spanish
Default                                  : Yes
Forced                                   : No
Audio #2
ID                                       : 3
Format                                   : AC-3
Format/Info                              : Audio Coding 3
Mode extension                           : CM (complete main)
Format settings, Endianness              : Big
Muxing mode                              : Header stripping
Codec ID                                 : A_AC3
Duration                                 : 1h 42mn
Bit rate mode                            : Constant
Bit rate                                 : 640 Kbps
Channel(s)                               : 6 channels
Channel positions                        : Front: L C R, Side: L R, LFE
Sampling rate                            : 48.0 KHz
Bit depth                                : 16 bits
Compression mode                         : Lossy
Stream size                              : 470 MiB (4%)
Title                                    : AC3 5.1
Language                                 : English
Default                                  : No
Forced                                   : No
Audio #3
ID                                       : 4
Format                                   : DTS
Format/Info                              : Digital Theater Systems
Mode                                     : 16
Format settings, Endianness              : Big
Muxing mode                              : Header stripping
Codec ID                                 : A_DTS
Duration                                 : 1h 42mn
Bit rate mode                            : Constant
Bit rate                                 : 1 509 Kbps
Channel(s)                               : 6 channels
Channel positions                        : Front: L C R, Side: L R, LFE
Sampling rate                            : 48.0 KHz
Bit depth                                : 24 bits
Compression mode                         : Lossy
Stream size                              : 1.08 GiB (9%)
Title                                    : DTS 5.1
Language                                 : English
Default                                  : No
Forced                                   : No
Text
ID                                       : 5
Format                                   : VobSub
Muxing mode                              : zlib
Codec ID                                 : S_VOBSUB
Codec ID/Info                            : The same subtitle format used on DVDs
Language                                 : Spanish
Default                                  : No
Forced                                   : No

hsKZHch.jpgZIxKS4H.jpgOOjulxp.jpgebKIvVd.jpg7Vt0k.png
https://filejoker.net/alej7veaechw/ri300fd3d.part01.rar
https://filejoker.net/cwpm5ovmmkvt/ri300fd3d.part02.rar
https://filejoker.net/11j23uxdxu0k/ri300fd3d.part03.rar
https://filejoker.net/am27ph7vfvc1/ri300fd3d.part04.rar
https://filejoker.net/nkikwhkli78v/ri300fd3d.part05.rar
https://filejoker.net/ratbz7sqdy0d/ri300fd3d.part06.rar
https://filejoker.net/5p0uxscombs8/ri300fd3d.part07.rar
https://filejoker.net/d52jl9386c6y/ri300fd3d.part08.rar
https://filejoker.net/o54i16ilhb64/ri300fd3d.part09.rar
https://filejoker.net/66o9wwcsnxqv/ri300fd3d.part10.rar
https://filejoker.net/98u7f74636uw/ri300fd3d.part11.rar
https://filejoker.net/vf8ahhnbrdsf/ri300fd3d.part12.rar
https://filejoker.net/tvfyghrogqah/ri300fd3d.part13.rar
https://filejoker.net/i6ing9ws65r9/ri300fd3d.part14.rar
https://filejoker.net/2kc3hm0tui3p/ri300fd3d.part15.rar
https://filejoker.net/vmk5if18f7qj/ri300fd3d.part16.rar
https://filejoker.net/tzc630sp0l99/ri300fd3d.part17.rar
https://filejoker.net/im77s3uwda7q/ri300fd3d.part18.rar
https://filejoker.net/nzmgjjcp6rsv/ri300fd3d.part19.rar
https://filejoker.net/xykvt9snuuew/ri300fd3d.part20.rar
https://filejoker.net/m80jl6a250zs/ri300fd3d.part21.rar
https://filejoker.net/grt5k9pwvhcw/ri300fd3d.part22.rar
https://filejoker.net/3wx5gxbnerp1/ri300fd3d.part23.rar
https://filejoker.net/jntk53v98b2l/ri300fd3d.part24.rar
https://filejoker.net/avsrzffyip7m/ri300fd3d.part25.rar
https://filejoker.net/mv0mjhydxn55/ri300fd3d.part26.rar


  • 0





Otros temas etiquetados con una o más de estas palabras clave: 300, Rise, an, Empire, 2014

0 usuario(s) viendo este foro

0 miembros, 0 invitados, 0 usuarios anónimos