Jump to content

Capitán Phillips BDRip 720p Audio LATiNO 5.1/Ingles DTS Sub


cadagoto
 Share

Recommended Posts


Capitán Phillips BDRip 720p Audio Español LATiNO 5.1/Ingles DTS Sub Esp [2013][Thriller]

346154j.jpg

Ficha Técnica
Captain Phillips / Capitán Phillips
Año: 2013
Duración: 135 min.
País: Estados Unidos
Director: Paul Greengrass
Guión: Billy Ray (Libro: Richard Phillips, Stephan Talty)
Música: Henry Jackman
Fotografía: Barry Ackroyd
Reparto: Tom Hanks, Barkhad Abdi, Mahat M. Ali, Barkhad Abdirahman, Faysal Ahmed, Michael Chernus, Catherine Keener, David Warshofsky, Corey Johnson, Chris Mulkey, Max Martini, Yul Vazquez, Omar Berdouni
Productora: Columbia Pictures / Michael De Luca Productions / Scott Rudin Productions / Trigger Street Productions
Género: Aventuras. Thriller. Drama | Aventuras marinas. Basado en hechos reales. África. Secuestros / Desapariciones. Piratas

Premios
2013: Globos de Oro: 4 nominaciones, incluyendo mejor película y director
2013: Critics Choice: 6 nominaciones, incluyendo Mejor película
2013: American Film Institute: Top 10 - Mejores películas del año
2013: Satellite Awards: 5 nominaciones, incluyendo mejor película y director

Sinopsis
En el año 2009, en aguas internacionales a 145 millas de la costa de Somalia, en el cuerno de África, el buque carguero Maersk Alabama, al mando del capitán de la marina mercante estadounidense, Richard Phillips (Tom Hanks), fue abordado y retenido por piratas somalíes, siendo el primer barco norteamericano secuestrado en los últimos doscientos años


Datos Técnicos

General
Format                                   : Matroska
Format version                           : Version 2
File size                                : 6.06 GiB
Duration                                 : 2h 14mn
Overall bit rate                         : 6 475 Kbps
Movie name                               : CadagotoHD
Encoded date                             : UTC 2014-01-09 07:08:20
Writing application                      : mkvmerge v3.4.0 ('Rapunzel') built on May 15 2010 09:38:20
Writing library                          : libebml v0.8.0 + libmatroska v0.9.0

Video
ID                                       : 1
Format                                   : AVC
Format/Info                              : Advanced Video Codec
Format profile                           : [email protected]
Format settings, CABAC                   : Yes
Format settings, ReFrames                : 5 frames
Codec ID                                 : V_MPEG4/ISO/AVC
Duration                                 : 2h 14mn
Bit rate                                 : 4 325 Kbps
Width                                    : 1 280 pixels
Height                                   : 536 pixels
Display aspect ratio                     : 2.40:1
Frame rate mode                          : Constant
Frame rate                               : 23.976 fps
Color space                              : YUV
Chroma subsampling                       : 4:2:0
Bit depth                                : 8 bits
Scan type                                : Progressive
Bits/(Pixel*Frame)                       : 0.263
Stream size                              : 3.93 GiB (65%)
Title                                    : CadagotoHD
Writing library                          : x264 core 140 r2377 1ca7bb9
Encoding settings                        : cabac=1 / ref=5 / deblock=1:-3:-3 / analyse=0x3:0x113 / me=umh / subme=8 / psy=1 / psy_rd=1.00:0.00 / mixed_ref=1 / me_range=16 / chroma_me=1 / trellis=1 / 8x8dct=1 / cqm=0 / deadzone=21,11 / fast_pskip=1 / chroma_qp_offset=-2 / threads=18 / lookahead_threads=3 / sliced_threads=0 / nr=0 / decimate=1 / interlaced=0 / bluray_compat=0 / constrained_intra=0 / bframes=3 / b_pyramid=2 / b_adapt=2 / b_bias=0 / direct=3 / weightb=1 / open_gop=0 / weightp=2 / keyint=240 / keyint_min=24 / scenecut=40 / intra_refresh=0 / rc_lookahead=50 / rc=2pass / mbtree=1 / bitrate=4325 / ratetol=1.0 / qcomp=0.60 / qpmin=0 / qpmax=69 / qpstep=4 / cplxblur=20.0 / qblur=0.5 / ip_ratio=1.40 / aq=1:1.00
Language                                 : English
Default                                  : No
Forced                                   : No

Audio #1
ID                                       : 2
Format                                   : AC-3
Format/Info                              : Audio Coding 3
Mode extension                           : CM (complete main)
Format settings, Endianness              : Big
Codec ID                                 : A_AC3
Duration                                 : 2h 14mn
Bit rate mode                            : Constant
Bit rate                                 : 640 Kbps
Channel(s)                               : 6 channels
Channel positions                        : Front: L C R, Side: L R, LFE
Sampling rate                            : 48.0 KHz
Bit depth                                : 16 bits
Compression mode                         : Lossy
Stream size                              : 614 MiB (10%)
Title                                    : CadagotoHD  -  Audio Español Latino AC3  5.1  640 Kbps
Language                                 : Spanish
Default                                  : No
Forced                                   : Yes

Audio #2
ID                                       : 3
Format                                   : DTS
Format/Info                              : Digital Theater Systems
Mode                                     : 16
Format settings, Endianness              : Big
Codec ID                                 : A_DTS
Duration                                 : 2h 14mn
Bit rate mode                            : Constant
Bit rate                                 : 1 509 Kbps
Channel(s)                               : 6 channels
Channel positions                        : Front: L C R, Side: L R, LFE
Sampling rate                            : 48.0 KHz
Bit depth                                : 24 bits
Compression mode                         : Lossy
Delay relative to video                  : 11ms
Stream size                              : 1.41 GiB (23%)
Title                                    : CadagotoHD  -  Audio Ingles  DTS  1509 Kbps
Language                                 : English
Default                                  : Yes
Forced                                   : No

Text #1
ID                                       : 4
Format                                   : UTF-8
Codec ID                                 : S_TEXT/UTF8
Codec ID/Info                            : UTF-8 Plain Text
Language                                 : Spanish
Default                                  : Yes
Forced                                   : Yes

Text #2
ID                                       : 5
Format                                   : UTF-8
Codec ID                                 : S_TEXT/UTF8
Codec ID/Info                            : UTF-8 Plain Text
Title                                    : CadagotoHD - Subtitulos Español Latino Completos
Language                                 : Spanish
Default                                  : No
Forced                                   : No

Menu
00:00:00.000                             : en:00:00:00.000
00:09:12.927                             : en:00:09:12.927
00:15:30.138                             : en:00:15:30.138
00:22:48.742                             : en:00:22:48.742
00:30:11.435                             : en:00:30:11.435
00:39:38.876                             : en:00:39:38.876
00:48:01.003                             : en:00:48:01.003
00:58:24.751                             : en:00:58:24.751
01:04:36.539                             : en:01:04:36.539
01:13:02.837                             : en:01:13:02.837
01:19:14.249                             : en:01:19:14.249
01:25:41.261                             : en:01:25:41.261
01:34:14.023                             : en:01:34:14.023
01:41:44.598                             : en:01:41:44.598
01:51:32.102                             : en:01:51:32.102
02:02:38.851                             : en:02:02:38.851







2m7glmb.jpg

2qm0zns.jpg

2wp49jo.jpg

15e7eo3.jpg

24cxwtw.jpg

2zew68g.jpg

2sam350.jpg

11i3hmx.jpg





Descargar Enlaces De FreakShare AQUI
http://s2l.biz/mrfz8zmvx8vo






Utiliza los Archivos .REV si tienes problema con 1,2,3 archivos en su descarga , Esté off o corruptos
353af4414c4a58c68848412c4e1e0.gif
Si necesitas 2 archivos , Bajas 2 REV y los reconstruirán Cualquiera que fuesen los que te falten !

 

Link to comment
Share on other sites

Create an account or sign in to comment

You need to be a member in order to leave a comment

Create an account

Sign up for a new account in our community. It's easy!

Register a new account

Sign in

Already have an account? Sign in here.

Sign In Now
 Share

×
×
  • Create New...