Jump to content

Lluvia de Hamburguesas 2 BDRip 720p Audio Español LATiNO 5.1


cadagoto
 Share

Recommended Posts


Lluvia de Hamburguesas 2: La Venganza de las Sobras BDRip 720p
Audio Español LATiNO 5.1/Ingles DTS Sub Esp [2013][Animación]


2j0ikh4.jpg

Ficha Técnica
Cloudy with a Chance of Meatballs 2
Lluvia de Hamburguesas 2: La Venganza de las Sobras
Año: 2013
Duración: 95 min.
País: Estados Unidos
Director: Cody Cameron, Kris Pearn
Guión: John Francis Daley, Jonathan M. Goldstein (Personajes: Judi Barrett, Ron Barrett)
Música: Mark Mothersbaugh
Fotografía: Animation
Reparto: Animation
Productora: Sony Pictures Animation / Sony Pictures Imageworks (SPI) / Columbia Pictures
Género: Animación. Comedia. Fantástico. Aventuras | Animales. Secuela. 3-D

Sinopsis
"Lluvia de Albóndigas 2" empieza exactamente donde terminaba la primera parte. El genio del inventor Flint Lockwoods acaba siendo reconocido por su ídolo Chester V, que lo invita a unirse a la The Live Corp Company, donde los inventores más brillantes del mundo crean nuevas tecnologías para el bienestar de la humanidad. La mano derecha de Chester es Barb: una orangutana dotada de un cerebro humano altamente evolucionado que le permite ser muy retorcida y manipuladora. El sueño de Flint cambia cuando descubre que la máquina de su invención, destinada a convertir el agua en alimentos, ha pasado a crear híbridos de animales-comida. Para salvar a la humanidad, Chester envía a Flint y a sus colegas a una peligrosa misión, que los llevará a enfrentarse a tacocodrilos, gambancés, quesoarañas con doble de bacon y otras criaturas igualmente extravagantes.


Datos Técnicos

General
Format                                   : Matroska
Format version                           : Version 2
File size                                : 4.62 GiB
Duration                                 : 1h 34mn
Overall bit rate                         : 6 979 Kbps
Movie name                               : CadagotoHD
Encoded date                             : UTC 2014-01-11 06:44:49
Writing application                      : mkvmerge v3.4.0 ('Rapunzel') built on May 15 2010 09:38:20
Writing library                          : libebml v0.8.0 + libmatroska v0.9.0

Video
ID                                       : 1
Format                                   : AVC
Format/Info                              : Advanced Video Codec
Format profile                           : [email protected]
Format settings, CABAC                   : Yes
Format settings, ReFrames                : 5 frames
Codec ID                                 : V_MPEG4/ISO/AVC
Duration                                 : 1h 34mn
Bit rate                                 : 5 085 Kbps
Width                                    : 1 280 pixels
Height                                   : 536 pixels
Display aspect ratio                     : 2.40:1
Frame rate mode                          : Constant
Frame rate                               : 23.976 fps
Color space                              : YUV
Chroma subsampling                       : 4:2:0
Bit depth                                : 8 bits
Scan type                                : Progressive
Bits/(Pixel*Frame)                       : 0.309
Stream size                              : 3.28 GiB (71%)
Title                                    : CadagotoHD
Writing library                          : x264 core 140 r2377 1ca7bb9
Encoding settings                        : cabac=1 / ref=5 / deblock=1:0:0 / analyse=0x3:0x133 / me=umh / subme=7 / psy=1 / psy_rd=1.00:0.00 / mixed_ref=1 / me_range=16 / chroma_me=1 / trellis=1 / 8x8dct=1 / cqm=0 / deadzone=21,11 / fast_pskip=0 / chroma_qp_offset=-2 / threads=36 / lookahead_threads=4 / sliced_threads=0 / nr=0 / decimate=1 / interlaced=0 / bluray_compat=0 / constrained_intra=0 / bframes=3 / b_pyramid=2 / b_adapt=1 / b_bias=0 / direct=1 / weightb=1 / open_gop=0 / weightp=2 / keyint=250 / keyint_min=23 / scenecut=40 / intra_refresh=0 / rc_lookahead=40 / rc=2pass / mbtree=1 / bitrate=5085 / ratetol=1.0 / qcomp=0.60 / qpmin=0 / qpmax=69 / qpstep=4 / cplxblur=20.0 / qblur=0.5 / ip_ratio=1.40 / aq=1:1.00
Language                                 : English
Default                                  : No
Forced                                   : No

Audio #1
ID                                       : 2
Format                                   : AC-3
Format/Info                              : Audio Coding 3
Mode extension                           : CM (complete main)
Format settings, Endianness              : Big
Codec ID                                 : A_AC3
Duration                                 : 1h 34mn
Bit rate mode                            : Constant
Bit rate                                 : 384 Kbps
Channel(s)                               : 6 channels
Channel positions                        : Front: L C R, Side: L R, LFE
Sampling rate                            : 44.1 KHz
Bit depth                                : 16 bits
Compression mode                         : Lossy
Stream size                              : 260 MiB (6%)
Title                                    : CadagotoHD  -  Audio Español Latino AC3  5.1  384 Kbps - DVD
Language                                 : Spanish
Default                                  : Yes
Forced                                   : Yes

Audio #2
ID                                       : 3
Format                                   : DTS
Format/Info                              : Digital Theater Systems
Mode                                     : 16
Format settings, Endianness              : Big
Codec ID                                 : A_DTS
Duration                                 : 1h 34mn
Bit rate mode                            : Constant
Bit rate                                 : 1 509 Kbps
Channel(s)                               : 6 channels
Channel positions                        : Front: L C R, Side: L R, LFE
Sampling rate                            : 48.0 KHz
Bit depth                                : 24 bits
Compression mode                         : Lossy
Delay relative to video                  : 11ms
Stream size                              : 1 024 MiB (22%)
Title                                    : CadagotoHD  -  Audio Ingles  DTS  1509 Kbps
Language                                 : English
Default                                  : No
Forced                                   : No

Text #1
ID                                       : 4
Format                                   : UTF-8
Codec ID                                 : S_TEXT/UTF8
Codec ID/Info                            : UTF-8 Plain Text
Language                                 : Spanish
Default                                  : Yes
Forced                                   : Yes

Text #2
ID                                       : 5
Format                                   : UTF-8
Codec ID                                 : S_TEXT/UTF8
Codec ID/Info                            : UTF-8 Plain Text
Title                                    : CadagotoHD - Subtitulos Español Latino Completos
Language                                 : Spanish
Default                                  : No
Forced                                   : No

Menu
00:00:00.000                             : en:00:00:00.000
00:07:12.015                             : en:00:07:12.015
00:12:51.521                             : en:00:12:51.521
00:18:50.421                             : en:00:18:50.421
00:25:58.390                             : en:00:25:58.390
00:31:57.082                             : en:00:31:57.082
00:36:53.253                             : en:00:36:53.253
00:39:28.908                             : en:00:39:28.908
00:41:07.840                             : en:00:41:07.840
00:45:28.017                             : en:00:45:28.017
00:49:48.694                             : en:00:49:48.694
00:54:41.403                             : en:00:54:41.403
01:00:39.886                             : en:01:00:39.886
01:06:47.921                             : en:01:06:47.921
01:12:54.954                             : en:01:12:54.954
01:21:25.589                             : en:01:21:25.589




5bcie.jpg

spywdf.jpg

28i9nx3.jpg

207syfq.jpg

8vngva.jpg

2r3e6ts.jpg

21d1yl5.jpg








Descargar Enlaces De FreakShare AQUI
http://s2l.biz/3e2z8zmer51





Utiliza los Archivos .REV si tienes problema con 1,2,3 archivos en su descarga , Esté off o corruptos
353af4414c4a58c68848412c4e1e0.gif
Si necesitas 2 archivos , Bajas 2 REV y los reconstruirán Cualquiera que fuesen los que te falten !

 

Link to comment
Share on other sites

  • 4 weeks later...

Create an account or sign in to comment

You need to be a member in order to leave a comment

Create an account

Sign up for a new account in our community. It's easy!

Register a new account

Sign in

Already have an account? Sign in here.

Sign In Now
 Share

×
×
  • Create New...