Jump to content

Actividad Poco Normal BDRip 720p Audio LATiNO 5.1 2013


cadagoto
 Share

Recommended Posts


Actividad Poco Normal BDRip 720p Audio Español LATiNO 5.1/Ingles DTS Sub Esp [2013][Comedia]

2q081zn.jpg

Ficha Técnica
TÍTULO ORIGINAL: Ghost Team One
OTROS TÍTULOS: Equipo paranormal (Actividad paranormal) / Actividad Poco Normal
AÑO: 2013
PAÍS: USA
DURACIÓN: 107 min.
DIRECTOR: Ben Peyser, Scott Rutherford
REPARTO: Carlos Santos, J.R. Villarreal, Tony Cavalero, Meghan Falcone, James Babson, Craig Stott, Scott MacArthur, Fernanda Romero
GUIÓN: Andrew Knauer, Arthur Pielli
MÚSICA: Mike Plas
FOTOGRAFÍA: Ben Peyser
PRODUCTORA: Hernany Perla Films / Flying Monkeys Entertainment
GÉNERO: Comedia. Terror. Comedia de terror. Sobrenatural. Fantasmas
FECHA DE ESTRENO USA: 20 de enero de 2013

Sinopsis
Cuando los compañeros de cuarto Brad y Sergio accidentalmente despiertan a la muerte, forman equipo al lado de la sexy novata cazafantasmas, Fernanda. Justo cuando los chicos empezaban a acercarse a su compañera, descubren que un lujurioso demonio quiere entrar en acción. Ahora, las cámaras están listas y el temor aumenta en este escandaloso enredo que ha sido calificado como genuinamente hilarante, donde sólo una cosa es segura: alguien saldrá perdiendo.



Datos Técnicos

General
Format                                   : Matroska
Format version                           : Version 2
File size                                : 4.54 GiB
Duration                                 : 1h 24mn
Overall bit rate mode                    : Variable
Overall bit rate                         : 7 721 Kbps
Movie name                               : CadagotoHD
Encoded date                             : UTC 2014-01-02 21:27:49
Writing application                      : mkvmerge v3.4.0 ('Rapunzel') built on May 15 2010 09:38:20
Writing library                          : libebml v0.8.0 + libmatroska v0.9.0

Video
ID                                       : 1
Format                                   : AVC
Format/Info                              : Advanced Video Codec
Format profile                           : High [email protected]
Format settings, CABAC                   : Yes
Format settings, ReFrames                : 3 frames
Codec ID                                 : V_MPEG4/ISO/AVC
Duration                                 : 1h 24mn
Bit rate mode                            : Variable
Bit rate                                 : 5 419 Kbps
Maximum bit rate                         : 14.0 Mbps
Width                                    : 1 280 pixels
Height                                   : 720 pixels
Display aspect ratio                     : 16:9
Frame rate mode                          : Constant
Frame rate                               : 23.976 fps
Color space                              : YUV
Chroma subsampling                       : 4:2:0
Bit depth                                : 10 bits
Scan type                                : Progressive
Bits/(Pixel*Frame)                       : 0.245
Stream size                              : 3.19 GiB (70%)
Title                                    : CadagotoHD
Writing library                          : x264 core 132 r2309 3b1f1f7
Encoding settings                        : cabac=1 / ref=4 / deblock=1:-1:-1 / analyse=0x3:0x133 / me=umh / subme=9 / psy=1 / psy_rd=1.00:0.15 / mixed_ref=1 / me_range=16 / chroma_me=1 / trellis=2 / 8x8dct=1 / cqm=0 / deadzone=21,11 / fast_pskip=1 / chroma_qp_offset=-3 / threads=12 / lookahead_threads=1 / sliced_threads=0 / slices=4 / slices_max=4 / nr=0 / decimate=1 / interlaced=0 / bluray_compat=0 / constrained_intra=0 / bframes=3 / b_pyramid=1 / b_adapt=2 / b_bias=0 / direct=3 / weightb=1 / open_gop=0 / weightp=0 / keyint=23 / keyint_min=1 / scenecut=40 / intra_refresh=0 / rc_lookahead=24 / rc=crf / mbtree=1 / crf=17.0 / qcomp=0.60 / qpmin=10 / qpmax=51 / qpstep=4 / vbv_maxrate=14000 / vbv_bufsize=14500 / crf_max=0.0 / nal_hrd=vbr / ip_ratio=1.40 / aq=1:1.00
Language                                 : English
Default                                  : No
Forced                                   : Yes

Audio #1
ID                                       : 2
Format                                   : AC-3
Format/Info                              : Audio Coding 3
Mode extension                           : CM (complete main)
Format settings, Endianness              : Big
Codec ID                                 : A_AC3
Duration                                 : 1h 24mn
Bit rate mode                            : Constant
Bit rate                                 : 640 Kbps
Channel count                            : 6 channels
Channel positions                        : Front: L C R, Side: L R, LFE
Sampling rate                            : 48.0 KHz
Bit depth                                : 16 bits
Compression mode                         : Lossy
Stream size                              : 386 MiB (8%)
Title                                    : CadagotoHD  -  Audio Español Latino AC3  5.1  640 Kbps
Language                                 : Spanish
Default                                  : Yes
Forced                                   : Yes

Audio #2
ID                                       : 3
Format                                   : DTS
Format/Info                              : Digital Theater Systems
Mode                                     : 16
Format settings, Endianness              : Big
Codec ID                                 : A_DTS
Duration                                 : 1h 24mn
Bit rate mode                            : Constant
Bit rate                                 : 1 509 Kbps
Channel count                            : 6 channels
Channel positions                        : Front: L C R, Side: L R, LFE
Sampling rate                            : 48.0 KHz
Bit depth                                : 24 bits
Compression mode                         : Lossy
Delay relative to video                  : 11ms
Stream size                              : 910 MiB (20%)
Title                                    : CadagotoHD  -  Audio Ingles  DTS  1509 Kbps
Language                                 : English
Default                                  : No
Forced                                   : No

Text #1
ID                                       : 4
Format                                   : UTF-8
Codec ID                                 : S_TEXT/UTF8
Codec ID/Info                            : UTF-8 Plain Text
Title                                    : CadagotoHD - Subtitulos Español Latino Forzados
Language                                 : Spanish
Default                                  : Yes
Forced                                   : Yes

Text #2
ID                                       : 5
Format                                   : UTF-8
Codec ID                                 : S_TEXT/UTF8
Codec ID/Info                            : UTF-8 Plain Text
Title                                    : CadagotoHD - Subtitulos Español Latino
Language                                 : Spanish
Default                                  : No
Forced                                   : No

Menu
00:00:00.000                             : es:Capítulo 01
00:07:16.978                             : es:Capítulo 02
00:15:39.688                             : es:Capítulo 03
00:22:30.974                             : es:Capítulo 04
00:29:09.456                             : es:Capítulo 05
00:35:24.205                             : es:Capítulo 06
00:39:05.176                             : es:Capítulo 07
00:45:32.271                             : es:Capítulo 08
00:53:21.656                             : es:Capítulo 09
01:00:30.835                             : es:Capítulo 10
01:07:37.887                             : es:Capítulo 11
01:17:22.471                             : es:Capítulo 12




2ng5xu1.jpg

2mpeb0m.jpg

153v67q.jpg

2s9doo9.jpg

2410b29.jpg




Descargar Enlaces De FreakShare AQUI
http://s2l.biz/md9ssymcr9q







Utiliza los Archivos .REV si tienes problema con 1,2,3 archivos en su descarga , Esté off o corruptos
353af4414c4a58c68848412c4e1e0.gif
Si necesitas 2 archivos , Bajas 2 REV y los reconstruirán Cualquiera que fuesen los que te falten !

 

Link to comment
Share on other sites

Create an account or sign in to comment

You need to be a member in order to leave a comment

Create an account

Sign up for a new account in our community. It's easy!

Register a new account

Sign in

Already have an account? Sign in here.

Sign In Now
 Share

×
×
  • Create New...