Jump to content

Traición al Límite (Paranoia) BDRip 720p Audio LATiNO 5.1


cadagoto
 Share

Recommended Posts


Traición al Límite (Paranoia) BDRip 720p Audio Español LATiNO 5.1/Ingles DTS Sub Esp [2013][Thriller]

25h0p6o.jpg

Ficha Técnica
Paranoia / Traición al Límite
Año 2013
Duración 106 min.
País Estados Unidos
Director Robert Luketic
Guión Barry Levy (Novela: Joseph Finder)
Fotografía David Tattersall
Reparto
Liam Hemsworth, Amber Heard, Harrison Ford, Gary Oldman, Embeth Davidtz, Josh Holloway
Richard Dreyfuss, Julian McMahon, Lucas Till, Angela Sarafyan
Productora Coproducción EEUU-Francia; Relativity Media / Gaumont / Demarest Films / EMJAG Productions
Género Thriller. Drama | Espionaje


Sinopsis
Adam Cassidy (Liam Hemsworth) es un muchacho de 26 años que odia su empleo en su compañía tecnológica Wyatt Corporation. Cuando manipula el sistema para ayudar a un amigo, es acusado de un delito federal. Su empresa, a través de su jefe Nicholas Wyatt (Gary Oldman), le ofrece un trato para escapar de prisión: convertirse en espía industrial e infiltrarse en la compañía rival, propiedad de Jock Goddard (Harrison Ford), antiguo mentor de Wyatt. Adam acepta, y logra ascender rápidamente, descubriendo cualidades que jamás imaginó poseer. Ahora su vida es perfecta; adora su trabajo, tiene un Porsche y sale con la chica de sus sueños. Y todo lo que tiene que hacer es traicionar a los que le rodean. (FILMAFFINITY)


Datos Técnicos

General
Format                                   : Matroska
Format version                           : Version 2
File size                                : 5.17 GiB
Duration                                 : 1h 46mn
Overall bit rate                         : 6 980 Kbps
Movie name                               : CadagotoHD
Encoded date                             : UTC 2014-01-02 06:33:22
Writing application                      : mkvmerge v3.4.0 ('Rapunzel') built on May 15 2010 09:38:20
Writing library                          : libebml v0.8.0 + libmatroska v0.9.0

Video
ID                                       : 1
Format                                   : AVC
Format/Info                              : Advanced Video Codec
Format profile                           : [email protected]
Format settings, CABAC                   : Yes
Format settings, ReFrames                : 5 frames
Codec ID                                 : V_MPEG4/ISO/AVC
Duration                                 : 1h 46mn
Bit rate                                 : 4 383 Kbps
Width                                    : 1 280 pixels
Height                                   : 536 pixels
Display aspect ratio                     : 2.40:1
Frame rate mode                          : Constant
Frame rate                               : 23.976 fps
Color space                              : YUV
Chroma subsampling                       : 4:2:0
Bit depth                                : 8 bits
Scan type                                : Progressive
Bits/(Pixel*Frame)                       : 0.266
Stream size                              : 3.15 GiB (61%)
Title                                    : CadagotoHD
Writing library                          : x264 core 140 r2377 1ca7bb9
Encoding settings                        : cabac=1 / ref=5 / deblock=1:0:0 / analyse=0x3:0x133 / me=umh / subme=7 / psy=1 / psy_rd=1.00:0.00 / mixed_ref=1 / me_range=16 / chroma_me=1 / trellis=1 / 8x8dct=1 / cqm=0 / deadzone=21,11 / fast_pskip=0 / chroma_qp_offset=-2 / threads=18 / lookahead_threads=3 / sliced_threads=0 / nr=0 / decimate=1 / interlaced=0 / bluray_compat=0 / constrained_intra=0 / bframes=3 / b_pyramid=2 / b_adapt=1 / b_bias=0 / direct=1 / weightb=1 / open_gop=0 / weightp=2 / keyint=250 / keyint_min=23 / scenecut=40 / intra_refresh=0 / rc_lookahead=40 / rc=2pass / mbtree=1 / bitrate=4383 / ratetol=1.0 / qcomp=0.60 / qpmin=0 / qpmax=69 / qpstep=4 / cplxblur=20.0 / qblur=0.5 / ip_ratio=1.40 / aq=1:1.00
Language                                 : English
Default                                  : No
Forced                                   : No

Audio #1
ID                                       : 2
Format                                   : AC-3
Format/Info                              : Audio Coding 3
Mode extension                           : CM (complete main)
Format settings, Endianness              : Big
Codec ID                                 : A_AC3
Duration                                 : 1h 46mn
Bit rate mode                            : Constant
Bit rate                                 : 448 Kbps
Channel count                            : 6 channels
Channel positions                        : Front: L C R, Side: L R, LFE
Sampling rate                            : 48.0 KHz
Bit depth                                : 16 bits
Compression mode                         : Lossy
Stream size                              : 340 MiB (6%)
Title                                    : CadagotoHD  -  Audio Español Latino AC3  5.1  448 Kbps
Language                                 : Spanish
Default                                  : No
Forced                                   : No

Audio #2
ID                                       : 3
Format                                   : AC-3
Format/Info                              : Audio Coding 3
Mode extension                           : CM (complete main)
Format settings, Endianness              : Big
Codec ID                                 : A_AC3
Duration                                 : 1h 46mn
Bit rate mode                            : Constant
Bit rate                                 : 640 Kbps
Channel count                            : 6 channels
Channel positions                        : Front: L C R, Side: L R, LFE
Sampling rate                            : 48.0 KHz
Bit depth                                : 16 bits
Compression mode                         : Lossy
Stream size                              : 486 MiB (9%)
Title                                    : CadagotoHD  -  Audio Ingles AC3  5.1  640 Kbps
Language                                 : English
Default                                  : No
Forced                                   : No

Audio #3
ID                                       : 4
Format                                   : DTS
Format/Info                              : Digital Theater Systems
Mode                                     : 16
Format settings, Endianness              : Big
Codec ID                                 : A_DTS
Duration                                 : 1h 46mn
Bit rate mode                            : Constant
Bit rate                                 : 1 509 Kbps
Channel count                            : 6 channels
Channel positions                        : Front: L C R, Side: L R, LFE
Sampling rate                            : 48.0 KHz
Bit depth                                : 24 bits
Compression mode                         : Lossy
Delay relative to video                  : 11ms
Stream size                              : 1.12 GiB (22%)
Title                                    : CadagotoHD  -  Audio Ingles  DTS  1509 Kbps
Language                                 : English
Default                                  : No
Forced                                   : No

Text #1
ID                                       : 5
Format                                   : UTF-8
Codec ID                                 : S_TEXT/UTF8
Codec ID/Info                            : UTF-8 Plain Text
Language                                 : Spanish
Default                                  : Yes
Forced                                   : Yes

Text #2
ID                                       : 6
Format                                   : UTF-8
Codec ID                                 : S_TEXT/UTF8
Codec ID/Info                            : UTF-8 Plain Text
Title                                    : CadagotoHD - Subtitulos Español Latino
Language                                 : Spanish
Default                                  : No
Forced                                   : No

Menu
00:00:00.000                             : en:00:00:00.000
00:06:54.205                             : en:00:06:54.205
00:10:31.840                             : en:00:10:31.840
00:14:12.602                             : en:00:14:12.602
00:17:02.396                             : en:00:17:02.396
00:21:41.008                             : en:00:21:41.008
00:26:29.922                             : en:00:26:29.922
00:31:31.848                             : en:00:31:31.848
00:36:47.580                             : en:00:36:47.580
00:39:37.500                             : en:00:39:37.500
00:46:08.933                             : en:00:46:08.933
00:49:15.327                             : en:00:49:15.327
00:54:37.900                             : en:00:54:37.900
00:57:30.238                             : en:00:57:30.238
00:59:16.511                             : en:00:59:16.511
01:04:02.547                             : en:01:04:02.547
01:06:58.431                             : en:01:06:58.431
01:10:14.961                             : en:01:10:14.961
01:19:23.759                             : en:01:19:23.759
01:23:21.079                             : en:01:23:21.079
01:27:37.502                             : en:01:27:37.502
01:35:06.618                             : en:01:35:06.618
01:37:53.367                             : en:01:37:53.367
01:40:59.053                             : en:01:40:59.053




oQtPZF.png

mWGh6c.png

Tzc6px.png

N3qLr9.png

MOfi79.png






Descargar Enlaces De FreakShare AQUI

http://s2l.biz/bwb7sym43j7yy




Utiliza los Archivos .REV si tienes problema con 1,2,3 archivos en su descarga , Esté off o corruptos
353af4414c4a58c68848412c4e1e0.gif
Si necesitas 2 archivos , Bajas 2 REV y los reconstruirán Cualquiera que fuesen los que te falten !

 

Link to comment
Share on other sites

Create an account or sign in to comment

You need to be a member in order to leave a comment

Create an account

Sign up for a new account in our community. It's easy!

Register a new account

Sign in

Already have an account? Sign in here.

Sign In Now
 Share

×
×
  • Create New...