Jump to content

Man of Steel BDRip 720p Ingles AC3 5.1 + DTS Sub Esp LATiNO


cadagoto
 Share

Recommended Posts


Man of Steel BDRip 720p Ingles AC3 5.1 + DTS Sub Esp LATiNO [2013][Acción]

d8PomB.jpg

Ficha Técnica
Título: El hombre de acero
Título original: Man of Steel
Dirección: Zack Snyder
País: Canadá, Estados Unidos
Año: 2013
Fecha de estreno: 21/06/2013
Duración: 148 min
Género: Acción, Ciencia ficción, Fantástico
Reparto: Henry Cavill, Russell Crowe, Amy Adams, Kevin Costner, Diane Lane, Michael Shannon, Christopher Meloni, Laurence Fishburne, Jadin Gould, Ayelet Zurer
Guión: David S. Goyer
Distribuidora: Warner Bros. Pictures
Productora: Warner Bros. Pictures, Atlas Entertainment, Syncopy, Legendary Pictures, DC Entertainment, Third Act Productions

Sinopsis
Nueva película sobre los orígenes del superhéroe más famoso de todos los tiempos. Superman (Henry Cavill) nace en Krypton, un planeta que está a punto de desaparecer por culpa de un desequilibrio de elementos radioactivos. Su padre le envía a la Tierra para salvarle la vida, siendo adoptado por una humilde pareja de campesinos de Kansas (Kevin Costner y Diane Lane).
El bebé es bautizado como Clark Kent; a ojos de la sociedad es un tímido periodista que intenta conquistar el corazón de la guapa Lois Lane (Amy Adams). Pero en realidad es un titán que se esfuerza por defender a los humanos de las implacables fuerzas del mal.


Datos Técnicos

General
Format                                   : Matroska
Format version                           : Version 2
File size                                : 7.19 GiB
Duration                                 : 2h 23mn
Overall bit rate                         : 7 197 Kbps
Movie name                               : CadagotoHD
Encoded date                             : UTC 2013-10-16 00:34:58
Writing application                      : mkvmerge v3.4.0 ('Rapunzel') built on May 15 2010 09:38:20
Writing library                          : libebml v0.8.0 + libmatroska v0.9.0

Video
ID                                       : 1
Format                                   : AVC
Format/Info                              : Advanced Video Codec
Format profile                           : [email protected]
Format settings, CABAC                   : Yes
Format settings, ReFrames                : 5 frames
Codec ID                                 : V_MPEG4/ISO/AVC
Duration                                 : 2h 23mn
Bit rate                                 : 5 048 Kbps
Width                                    : 1 280 pixels
Height                                   : 536 pixels
Display aspect ratio                     : 2.40:1
Frame rate mode                          : Constant
Frame rate                               : 23.976 fps
Color space                              : YUV
Chroma subsampling                       : 4:2:0
Bit depth                                : 8 bits
Scan type                                : Progressive
Bits/(Pixel*Frame)                       : 0.307
Stream size                              : 4.90 GiB (68%)
Title                                    : CadagotoHD
Writing library                          : x264 core 138 r2358 9e941d1
Encoding settings                        : cabac=1 / ref=5 / deblock=1:0:0 / analyse=0x3:0x133 / me=umh / subme=8 / psy=1 / psy_rd=1.00:0.00 / mixed_ref=1 / me_range=16 / chroma_me=1 / trellis=1 / 8x8dct=1 / cqm=0 / deadzone=21,11 / fast_pskip=0 / chroma_qp_offset=-2 / threads=24 / lookahead_threads=4 / sliced_threads=0 / nr=0 / decimate=1 / interlaced=0 / bluray_compat=0 / constrained_intra=0 / bframes=3 / b_pyramid=2 / b_adapt=1 / b_bias=0 / direct=1 / weightb=1 / open_gop=0 / weightp=2 / keyint=250 / keyint_min=23 / scenecut=40 / intra_refresh=0 / rc=2pass / mbtree=0 / bitrate=5048 / ratetol=1.0 / qcomp=0.60 / qpmin=0 / qpmax=69 / qpstep=4 / cplxblur=20.0 / qblur=0.5 / ip_ratio=1.40 / pb_ratio=1.30 / aq=1:1.00
Language                                 : English
Default                                  : No
Forced                                   : No

Audio #1
ID                                       : 2
Format                                   : AC-3
Format/Info                              : Audio Coding 3
Mode extension                           : CM (complete main)
Format settings, Endianness              : Big
Codec ID                                 : A_AC3
Duration                                 : 2h 23mn
Bit rate mode                            : Constant
Bit rate                                 : 640 Kbps
Channel count                            : 6 channels
Channel positions                        : Front: L C R, Side: L R, LFE
Sampling rate                            : 48.0 KHz
Bit depth                                : 16 bits
Compression mode                         : Lossy
Stream size                              : 655 MiB (9%)
Title                                    : CadagotoHD  -  Audio Ingles AC3  5.1  640 Kbps
Language                                 : Spanish
Default                                  : No
Forced                                   : No

Audio #2
ID                                       : 3
Format                                   : DTS
Format/Info                              : Digital Theater Systems
Mode                                     : 16
Format settings, Endianness              : Big
Codec ID                                 : A_DTS
Duration                                 : 2h 23mn
Bit rate mode                            : Constant
Bit rate                                 : 1 509 Kbps
Channel count                            : 6 channels
Channel positions                        : Front: L C R, Side: L R, LFE
Sampling rate                            : 48.0 KHz
Bit depth                                : 24 bits
Compression mode                         : Lossy
Delay relative to video                  : 11ms
Stream size                              : 1.51 GiB (21%)
Title                                    : CadagotoHD  -  Audio Ingles  DTS  1509 Kbps
Language                                 : English
Default                                  : No
Forced                                   : No

Text
ID                                       : 4
Format                                   : UTF-8
Codec ID                                 : S_TEXT/UTF8
Codec ID/Info                            : UTF-8 Plain Text
Title                                    : CadagotoHD - Subtitulos Español Latino
Language                                 : Spanish
Default                                  : Yes
Forced                                   : Yes

Menu
00:00:00.000                             : en:00:00:00.000
00:11:16.968                             : en:00:11:16.968
00:20:01.450                             : en:00:20:01.450
00:30:09.474                             : en:00:30:09.474
00:39:21.609                             : en:00:39:21.609
00:48:57.643                             : en:00:48:57.643
00:59:03.415                             : en:00:59:03.415
01:08:57.884                             : en:01:08:57.884
01:17:35.109                             : en:01:17:35.109
01:28:36.186                             : en:01:28:36.186
01:40:47.792                             : en:01:40:47.792
01:50:55.858                             : en:01:50:55.858
02:00:53.580                             : en:02:00:53.580
02:10:13.556                             : en:02:10:13.556
02:12:49.920                             : en:02:12:49.920




gB4ck5.png

rFy8VS.png

FCKZPH.png

zDvYot.png

6cGHN6.png

1EF0BH.png

BFmTFA.png

EbqT6o.png

rqQSae.png

Olfl7L.png







Descargar Enlaces De FreakShare AQUI
http://s2l.biz/0xqpqumyqtau






Utiliza los Archivos .REV si tienes problema con 1,2,3 archivos en su descarga , Esté off o corruptos
353af4414c4a58c68848412c4e1e0.gif
Si necesitas 2 archivos , Bajas 2 REV y los reconstruirán Cualquiera que fuesen los que te falten !

 

Link to comment
Share on other sites

Create an account or sign in to comment

You need to be a member in order to leave a comment

Create an account

Sign up for a new account in our community. It's easy!

Register a new account

Sign in

Already have an account? Sign in here.

Sign In Now
 Share

×
×
  • Create New...