Jump to content

El Ataque BDRip 720p Ingles AC3 5.1 + DTS Sub Esp 2013


cadagoto
 Share

Recommended Posts


El Ataque : La caida de la Casa Blanca BDRip 720p Ingles AC3 5.1 + DTS Sub Esp LATiNO[2013][Terrorismo]

HtfAw0.jpg

Ficha Técnica
White House Down
Asalto al poder/ El Ataque/La caida de la Casa Blanca
Año 2013
Duración131 min.
País Estados Unidos
Director Roland Emmerich
GuiónJames Vanderbilt
Música Harald Kloser, Thomas Wanker
Fotografía Anna Foerster
Reparto
Channing Tatum, Maggie Gyllenhaal, Jamie Foxx, James Woods, Joey King, Richard Jenkins, Jason Clarke
Lance Reddick, Falk Hentschel, Michael Murphy, Romano Orzari, Patrick Sabongui, Jackie Geary
Productora Columbia Pictures / Iron Horse Entertainment / Mythology Entertainment
Género Acción. Thriller | Terrorismo


Sinopsis
John Cale (Channing Tatum), un policía del Capitolio, ve rechazada su petición de entrar en el Servicio Secreto para proteger al Presidente de los Estados Unidos James Sawyer (Jamie Foxx). Para no decepcionar a su hija, la lleva a hacer un tour por la Casa Blanca. En ese momento, un comando paramilitar fuertemente armado asalta el edificio. Con el Gobierno de la nación sumido en el caos, Cale intentará salvar al Presidente, a su hija y al país. (FILMAFFINITY)


Datos Técnicos

General
Format                                   : Matroska
Format version                           : Version 2
File size                                : 6.84 GiB
Duration                                 : 2h 11mn
Overall bit rate                         : 7 446 Kbps
Movie name                               : CadagotoHD
Encoded date                             : UTC 2013-10-14 01:30:59
Writing application                      : mkvmerge v3.4.0 ('Rapunzel') built on May 15 2010 09:38:20
Writing library                          : libebml v0.8.0 + libmatroska v0.9.0

Video
ID                                       : 1
Format                                   : AVC
Format/Info                              : Advanced Video Codec
Format profile                           : [email protected]
Format settings, CABAC                   : Yes
Format settings, ReFrames                : 5 frames
Codec ID                                 : V_MPEG4/ISO/AVC
Duration                                 : 2h 11mn
Bit rate                                 : 5 149 Kbps
Width                                    : 1 280 pixels
Height                                   : 534 pixels
Display aspect ratio                     : 2.40:1
Frame rate mode                          : Constant
Frame rate                               : 23.976 fps
Color space                              : YUV
Chroma subsampling                       : 4:2:0
Bit depth                                : 8 bits
Scan type                                : Progressive
Bits/(Pixel*Frame)                       : 0.314
Stream size                              : 4.73 GiB (69%)
Title                                    : CadagotoHD
Language                                 : English
Default                                  : No
Forced                                   : No

Audio #1
ID                                       : 2
Format                                   : AC-3
Format/Info                              : Audio Coding 3
Mode extension                           : CM (complete main)
Format settings, Endianness              : Big
Codec ID                                 : A_AC3
Duration                                 : 2h 11mn
Bit rate mode                            : Constant
Bit rate                                 : 640 Kbps
Channel count                            : 6 channels
Channel positions                        : Front: L C R, Side: L R, LFE
Sampling rate                            : 48.0 KHz
Bit depth                                : 16 bits
Compression mode                         : Lossy
Stream size                              : 602 MiB (9%)
Title                                    : CadagotoHD  -  Audio Ingles AC3  5.1  640 Kbps
Language                                 : English
Default                                  : No
Forced                                   : No

Audio #2
ID                                       : 3
Format                                   : DTS
Format/Info                              : Digital Theater Systems
Mode                                     : 16
Format settings, Endianness              : Big
Codec ID                                 : A_DTS
Duration                                 : 2h 11mn
Bit rate mode                            : Constant
Bit rate                                 : 1 509 Kbps
Channel count                            : 6 channels
Channel positions                        : Front: L C R, Side: L R, LFE
Sampling rate                            : 48.0 KHz
Bit depth                                : 24 bits
Compression mode                         : Lossy
Delay relative to video                  : 11ms
Stream size                              : 1.39 GiB (20%)
Title                                    : CadagotoHD  -  Audio Ingles  DTS  1509 Kbps
Language                                 : English
Default                                  : No
Forced                                   : No

Text
ID                                       : 4
Format                                   : UTF-8
Codec ID                                 : S_TEXT/UTF8
Codec ID/Info                            : UTF-8 Plain Text
Title                                    : CadagotoHD - Subtitulos Español Latino
Language                                 : Spanish
Default                                  : Yes
Forced                                   : Yes

Menu
00:00:00.000                             : en:00:00:00.000
00:06:39.774                             : en:00:06:39.774
00:15:18.835                             : en:00:15:18.835
00:21:37.838                             : en:00:21:37.838
00:30:10.809                             : en:00:30:10.809
00:37:47.348                             : en:00:37:47.348
00:45:51.207                             : en:00:45:51.207
00:51:12.278                             : en:00:51:12.278
00:59:55.133                             : en:00:59:55.133
01:07:08.942                             : en:01:07:08.942
01:14:42.853                             : en:01:14:42.853
01:24:13.590                             : en:01:24:13.590
01:29:53.805                             : en:01:29:53.805
01:37:27.717                             : en:01:37:27.717
01:44:36.562                             : en:01:44:36.562
01:54:17.851                             : en:01:54:17.851




ClWTB3.png

NqIgQS.png

ZmG1z8.png

CtQZD0.png

XeOVOU.png

5aOxOA.png

RXvf30.png

p3E7I9.png

BkbI4U.png

nFk8p6.png






Descargar Enlaces De FreakShare AQUI
http://s2l.biz/n5g0num656rd






Utiliza los Archivos .REV si tienes problema con 1,2,3 archivos en su descarga , Esté off o corruptos
353af4414c4a58c68848412c4e1e0.gif
Si necesitas 2 archivos , Bajas 2 REV y los reconstruirán Cualquiera que fuesen los que te falten !

 

Link to comment
Share on other sites

Create an account or sign in to comment

You need to be a member in order to leave a comment

Create an account

Sign up for a new account in our community. It's easy!

Register a new account

Sign in

Already have an account? Sign in here.

Sign In Now
 Share

×
×
  • Create New...