Jump to content

El Llanero Solitario BDRip 720p Español LATiNO AC3 5.1 2013


cadagoto
 Share

Recommended Posts


El Llanero Solitario BDRip 720p Español LATiNO AC3 5.1/Ingles DTS Sub Esp [2013][Western]

H0j859.jpg

Ficha Técnica
The Lone Ranger / El Llanero Solitario
Año: 2013
Duración: 149 min.
País: Estados Unidos
Director: Gore Verbinski
Guión: Justin Haythe, Ted Elliott, Terry Rossio
Música: Hans Zimmer
Fotografía: Bojan Bazelli
Reparto: Armie Hammer, Johnny Depp, Tom Wilkinson, William Fichtner, Ruth Wilson, Helena Bonham Carter, James Badge Dale, Bryant Prince, Barry Pepper, Harry Treadaway, James Frain, Mason Elston Cook, Joaquín Cosío
Productora: Walt Disney Pictures / Jerry Bruckheimer Films
Género: Aventuras. Western. Acción | Trenes. Venganza

Sinopsis
Adaptación de las aventuras del héroe del serial radiofónico del mismo título. Un grupo de Rangers de Texas sufre el ataque de una banda de forajidos. Un indio llamado Toro encuentra al único superviviente, el Llanero Solitario. Desde entonces, el héroe, su caballo Silver y su nuevo ayudante Toro, recorren el estado para vengarse de los forajidos y hacer triunfar la justicia.


Datos Técnicos

General
Format                                   : Matroska
Format version                           : Version 2
File size                                : 8.31 GiB
Duration                                 : 2h 29mn
Overall bit rate                         : 7 952 Kbps
Movie name                               : CadagotoHD
Encoded date                             : UTC 2013-10-13 18:16:51
Writing application                      : mkvmerge v3.4.0 ('Rapunzel') built on May 15 2010 09:38:20
Writing library                          : libebml v0.8.0 + libmatroska v0.9.0
Attachment                               : Yes

Video
ID                                       : 1
Format                                   : AVC
Format/Info                              : Advanced Video Codec
Format profile                           : [email protected]
Format settings, CABAC                   : Yes
Format settings, ReFrames                : 12 frames
Codec ID                                 : V_MPEG4/ISO/AVC
Duration                                 : 2h 29mn
Bit rate                                 : 6 000 Kbps
Width                                    : 1 280 pixels
Height                                   : 534 pixels
Display aspect ratio                     : 2.40:1
Frame rate mode                          : Constant
Frame rate                               : 23.976 fps
Color space                              : YUV
Chroma subsampling                       : 4:2:0
Bit depth                                : 8 bits
Scan type                                : Progressive
Bits/(Pixel*Frame)                       : 0.366
Stream size                              : 6.16 GiB (74%)
Title                                    : CadagotoHD
Writing library                          : x264 core 132 r2323+704+51 d571b1c tMod [[email protected]:2:0 X86_64]
Encoding settings                        : cabac=1 / ref=12 / deblock=1:-3:-3 / analyse=0x3:0x113 / me=umh / subme=11 / psy=1 / fade_compensate=0.00 / psy_rd=1.05:0.00 / mixed_ref=1 / me_range=32 / chroma_me=1 / trellis=2 / 8x8dct=1 / cqm=0 / deadzone=21,11 / fast_pskip=0 / chroma_qp_offset=-2 / threads=18 / lookahead_threads=2 / sliced_threads=0 / nr=0 / decimate=0 / interlaced=0 / bluray_compat=0 / constrained_intra=0 / fgo=0 / bframes=6 / b_pyramid=2 / b_adapt=2 / b_bias=0 / direct=3 / weightb=1 / open_gop=0 / weightp=2 / keyint=240 / keyint_min=24 / scenecut=40 / intra_refresh=0 / rc_lookahead=240 / rc=2pass / mbtree=1 / bitrate=6000 / ratetol=1.0 / qcomp=0.70 / qpmin=0 / qpmax=69 / qpstep=4 / cplxblur=20.0 / qblur=0.5 / ip_ratio=1.10 / aq=4:0.85 / aq-sensitivity=10.00 / aq-factor=1.00:1.00:1.00 / aq2=0 / aq3=0
Language                                 : English
Default                                  : No
Forced                                   : No

Audio #1
ID                                       : 2
Format                                   : AC-3
Format/Info                              : Audio Coding 3
Mode extension                           : CM (complete main)
Format settings, Endianness              : Big
Codec ID                                 : A_AC3
Duration                                 : 2h 29mn
Bit rate mode                            : Constant
Bit rate                                 : 384 Kbps
Channel count                            : 6 channels
Channel positions                        : Front: L C R, Side: L R, LFE
Sampling rate                            : 48.0 KHz
Bit depth                                : 16 bits
Compression mode                         : Lossy
Stream size                              : 411 MiB (5%)
Title                                    : CadagotoHD  -  Audio Español Latino AC3  5.1 384 Kbps
Language                                 : Spanish
Default                                  : No
Forced                                   : No

Audio #2
ID                                       : 3
Format                                   : DTS
Format/Info                              : Digital Theater Systems
Mode                                     : 16
Format settings, Endianness              : Big
Codec ID                                 : A_DTS
Duration                                 : 2h 29mn
Bit rate mode                            : Constant
Bit rate                                 : 1 509 Kbps
Channel count                            : 6 channels
Channel positions                        : Front: L C R, Side: L R, LFE
Sampling rate                            : 48.0 KHz
Bit depth                                : 24 bits
Compression mode                         : Lossy
Delay relative to video                  : 11ms
Stream size                              : 1.58 GiB (19%)
Title                                    : CadagotoHD  -  Audio Ingles  DTS  1509 Kbps
Language                                 : English
Default                                  : No
Forced                                   : No

Text #1
ID                                       : 4
Format                                   : UTF-8
Codec ID                                 : S_TEXT/UTF8
Codec ID/Info                            : UTF-8 Plain Text
Language                                 : Spanish
Default                                  : Yes
Forced                                   : Yes

Text #2
ID                                       : 5
Format                                   : UTF-8
Codec ID                                 : S_TEXT/UTF8
Codec ID/Info                            : UTF-8 Plain Text
Title                                    : CadagotoHD - Subtitulos Español Latino
Language                                 : Spanish
Default                                  : No
Forced                                   : No

Menu
00:00:00.000                             : en:00:00:00.000
00:08:16.121                             : en:00:08:16.121
00:13:38.776                             : en:00:13:38.776
00:24:51.407                             : en:00:24:51.407
00:29:03.033                             : en:00:29:03.033
00:32:05.841                             : en:00:32:05.841
00:40:32.013                             : en:00:40:32.013
00:45:29.644                             : en:00:45:29.644
00:53:29.665                             : en:00:53:29.665
01:01:05.662                             : en:01:01:05.662
01:10:01.614                             : en:01:10:01.614
01:16:12.318                             : en:01:16:12.318
01:24:45.455                             : en:01:24:45.455
01:28:39.731                             : en:01:28:39.731
01:35:35.188                             : en:01:35:35.188
01:41:13.985                             : en:01:41:13.985
01:46:35.806                             : en:01:46:35.806
01:50:02.179                             : en:01:50:02.179
01:53:55.203                             : en:01:53:55.203
01:56:15.260                             : en:01:56:15.260
02:01:51.095                             : en:02:01:51.095
02:12:07.211                             : en:02:12:07.211
02:17:13.934                             : en:02:17:13.934
02:20:20.287                             : en:02:20:20.287



12vRUF.png

LMKC8W.png

q1iQhz.png

AjBC5O.png

jU5GlD.png

gVnjH6.png

vMGmNk.png

8eOWCf.png

lDrGk6.png

n2XTp9.png





Descargar Enlaces De FreakShare AQUI

http://s2l.biz/myvimum8gtsf



Utiliza los Archivos .REV si tienes problema con 1,2,3 archivos en su descarga , Esté off o corruptos
353af4414c4a58c68848412c4e1e0.gif
Si necesitas 2 archivos , Bajas 2 REV y los reconstruirán Cualquiera que fuesen los que te falten !

 

Link to comment
Share on other sites

Create an account or sign in to comment

You need to be a member in order to leave a comment

Create an account

Sign up for a new account in our community. It's easy!

Register a new account

Sign in

Already have an account? Sign in here.

Sign In Now
 Share

×
×
  • Create New...