Jump to content

La Caida de la Casa Blanca (2013) [BRRip 1080p][Ingles/Sub.E


vaguit0
 Share

Recommended Posts

asalto_al_poder_20913.jpg

fcywdi37.png


Título: Asalto al Poder

Título original: White House Down

País: USA

Estreno en USA: 28/06/2013

Estreno en España: 13/09/2013

Productora: Columbia Pictures (Sony)

Director: Roland Emmerich

Guión: James Vanderbilt

Reparto: Channing Tatum, Jamie Foxx, Maggie Gyllenhaal, James Woods, Richard Jenkins, Rachelle Lefevre, Joey King, Lance Reddick, Garcelle Beauvais, Jason Clarke, Jake Weber, Simon Northwood, Matt Craven, Kevin Rankin, Michael Murphy

Calificación: No recomendada para menores de 16 años


Sinopsis:

Al Policía del Capitolio John Cale (Channing Tatum) le acaban de rechazar en lo que sería su trabajo ideal, dentro del Servicio Secreto y protegiendo al Presidente James Sawyer (Jamie Foxx). Como no quiere decepcionar a su hija, lleva a la pequeña a realizar un tour dentro de la Casa Blanca. En ese momento un grupo de paramilitares fuertemente armados asalta el edificio. Ahora con el tiempo agotándose y Gobierno de la nación inmerso en el caos, Cale está dispuesto a salvar al Presidente, su hija y al país.


a9fyuge2.png


Formato: mkv

Calidad: BRRip 1080p

Resolucion: 1920 x 802

Audio: Ac3-5.1

Idioma: Ingles

Subtitulos: Si / Español

Tamaño: 2.3 Gb


MEDIA INFO


Format : Matroska


Format version : Version 2

File size : 2.28 GiB

Duration : 2h 11mn

Overall bit rate : 2 477 Kbps

Movie name : White House Down (2013) 1080p Audio Ingles - Pocos Megas HD

Encoded date : UTC 2013-10-11 11:18:33

Writing application : mkvmerge v5.7.0 ('The Whirlwind') built on Jul 8 2012 20:08:51

Writing library : libebml v1.2.3 + libmatroska v1.3.0


Video

ID : 1

Format : AVC

Format/Info : Advanced Video Codec

Format profile : [email protected]

Format settings, CABAC : Yes

Format settings, ReFrames : 5 frames

Muxing mode : Header stripping

Codec ID : V_MPEG4/ISO/AVC

Duration : 2h 11mn

Bit rate : 2 028 Kbps

Width : 1 920 pixels

Height : 802 pixels

Display aspect ratio : 2.40:1

Frame rate : 23.976 fps

Color space : YUV

Chroma subsampling : 4:2:0

Bit depth : 8 bits

Scan type : Progressive

Bits/(Pixel*Frame) : 0.055

Stream size : 1.82 GiB (80%)

Title : wWw.PocosMegasHD.Com

Writing library : x264 core 132 r2 76a5c3a

Encoding settings : cabac=1 / ref=5 / deblock=1:-1:-1 / analyse=0x3:0x133 / me=umh / subme=9 / psy=1 / psy_rd=1.00:0.15 / mixed_ref=1 / me_range=24 / chroma_me=1 / trellis=2 / 8x8dct=1 / cqm=0 / deadzone=21,11 / fast_pskip=0 / chroma_qp_offset=-3 / threads=18 / lookahead_threads=1 / sliced_threads=0 / nr=0 / decimate=1 / interlaced=0 / bluray_compat=0 / constrained_intra=0 / bframes=3 / b_pyramid=2 / b_adapt=2 / b_bias=0 / direct=3 / weightb=1 / open_gop=0 / weightp=2 / keyint=250 / keyint_min=23 / scenecut=40 / intra_refresh=0 / rc_lookahead=60 / rc=2pass / mbtree=1 / bitrate=2028 / ratetol=1.0 / qcomp=0.60 / qpmin=0 / qpmax=69 / qpstep=4 / cplxblur=20.0 / qblur=0.5 / vbv_maxrate=31250 / vbv_bufsize=31250 / nal_hrd=none / ip_ratio=1.40 / aq=1:1.00

Language : English

Color primaries : BT.709-5, BT.1361, IEC 61966-2-4, SMPTE RP177

Matrix coefficients : BT.709-5, BT.1361, IEC 61966-2-4 709, SMPTE RP177


Audio

ID : 2

Format : AC-3

Format/Info : Audio Coding 3

Mode extension : CM (complete main)

Muxing mode : Header stripping

Codec ID : A_AC3

Duration : 2h 11mn

Bit rate mode : Constant

Bit rate : 448 Kbps

Channel(s) : 6 channels

Channel positions : Front: L C R, Side: L R, LFE

Sampling rate : 48.0 KHz

Bit depth : 16 bits

Compression mode : Lossy

Stream size : 422 MiB (18%)

Title : Audio Ingles - Tu mejor Opcion

Language : English


Text

ID : 3

Format : UTF-8

Codec ID : S_TEXT/UTF8

Codec ID/Info : UTF-8 Plain Text

Title : Subtitlos Espa1ol

Language : Spanish





v8gqztqm.png



6OJjRYk.jpg


JRwnd9C.jpg


z1GVRP0.jpg



ak6pvqq5.png



crYty8F.png





Link to comment
Share on other sites

Create an account or sign in to comment

You need to be a member in order to leave a comment

Create an account

Sign up for a new account in our community. It's easy!

Register a new account

Sign in

Already have an account? Sign in here.

Sign In Now
 Share

×
×
  • Create New...