Jump to content

Aprendices Fuera de Línea BDRip 720p Audio LATiNO 5.1 2013


cadagoto
 Share

Recommended Posts


Aprendices Fuera de Línea BDRip 720p Español LATiNO 5.1/Ingles DTS Sub Esp [2013][Comedia]

AcFqmC.jpg

Ficha Técnica
TÍTULO ORIGINAL: The Internship
OTROS TÍTULOS: Los becarios / Aprendices Fuera de Línea
AÑO: 2013
PAÍS: USA
DURACIÓN: 119 min.
DIRECTOR: Shawn Levy
REPARTO: Owen Wilson, Vince Vaughn, Rose Byrne, John Goodman, JoAnna Garcia Swisher, Dylan OBrien, Max Minghella, Jessica Szohr, Bruno Amato, Josh Gad, Aasif Mandvi, Tiya Sircar, Chasty Ballesteros, Will Ferrell
GUIÓN: Vince Vaughn
MÚSICA: Christophe Beck
FOTOGRAFÍA: Jonathan Brown
PRODUCTORA: 2Oth C3ntury F0x / 21 L4ps Ent3rta1nm3nt / Wild West Picture Sh0w Productions
GÉNERO: Comedia. Trabajo/empleo. Internet/Informática
FECHA DE ESTRENO USA: 7 de junio de 2013
FECHA DE ESTRENO COLOMBIA: 21 de junio de 2013
FECHA DE ESTRENO ESPAÑA: 28 de junio de 2013
FECHA DE ESTRENO MÉXICO: 13 de septiembre de 2013

Sinopsis
Billy (Vince Vaughn) y Nick (Owen Wilson), dos comerciales ya cuarentones que han perdido su empleo, llegan a la conclusión de que su problema consiste en no haberse adaptado a las nuevas tecnologías. Deciden entonces empezar de cero y buscar trabajo en la empresa más popular de Internet: Google. Cuando, por fin, consiguen un contrato de prácticas como becarios, se verán obligados a competir con jóvenes veinteañeros, universitarios brillantes mucho más listos y más familiarizados que ellos con el mundo digital.


Datos Técnicos

General
Format                                   : Matroska
Format version                           : Version 2
File size                                : 5.77 GiB
Duration                                 : 2h 5mn
Overall bit rate                         : 6 605 Kbps
Movie name                               : CadagotoHD
Encoded date                             : UTC 2013-10-11 00:23:24
Writing application                      : mkvmerge v3.4.0 ('Rapunzel') built on May 15 2010 09:38:20
Writing library                          : libebml v0.8.0 + libmatroska v0.9.0

Video
ID                                       : 1
Format                                   : AVC
Format/Info                              : Advanced Video Codec
Format profile                           : [email protected]
Format settings, CABAC                   : Yes
Format settings, ReFrames                : 5 frames
Codec ID                                 : V_MPEG4/ISO/AVC
Duration                                 : 2h 5mn
Bit rate                                 : 4 517 Kbps
Width                                    : 1 280 pixels
Height                                   : 544 pixels
Display aspect ratio                     : 2.35:1
Frame rate mode                          : Constant
Frame rate                               : 23.976 fps
Color space                              : YUV
Chroma subsampling                       : 4:2:0
Bit depth                                : 8 bits
Scan type                                : Progressive
Bits/(Pixel*Frame)                       : 0.271
Stream size                              : 3.94 GiB (68%)
Title                                    : CadagotoHD
Language                                 : English
Default                                  : No
Forced                                   : No

Audio #1
ID                                       : 2
Format                                   : AC-3
Format/Info                              : Audio Coding 3
Mode extension                           : CM (complete main)
Format settings, Endianness              : Big
Codec ID                                 : A_AC3
Duration                                 : 2h 5mn
Bit rate mode                            : Constant
Bit rate                                 : 448 Kbps
Channel count                            : 6 channels
Channel positions                        : Front: L C R, Side: L R, LFE
Sampling rate                            : 48.0 KHz
Bit depth                                : 16 bits
Compression mode                         : Lossy
Stream size                              : 401 MiB (7%)
Title                                    : CadagotoHD  -  Audio Español Latino AC3  5.1  448 Kbps
Language                                 : Spanish
Default                                  : Yes
Forced                                   : Yes

Audio #2
ID                                       : 3
Format                                   : DTS
Format/Info                              : Digital Theater Systems
Mode                                     : 16
Format settings, Endianness              : Big
Codec ID                                 : A_DTS
Duration                                 : 2h 5mn
Bit rate mode                            : Constant
Bit rate                                 : 1 509 Kbps
Channel count                            : 6 channels
Channel positions                        : Front: L C R, Side: L R, LFE
Sampling rate                            : 48.0 KHz
Bit depth                                : 24 bits
Compression mode                         : Lossy
Delay relative to video                  : 11ms
Stream size                              : 1.32 GiB (23%)
Title                                    : CadagotoHD  -  Audio Ingles  DTS  1509 Kbps
Language                                 : English
Default                                  : No
Forced                                   : No

Text #1
ID                                       : 4
Format                                   : UTF-8
Codec ID                                 : S_TEXT/UTF8
Codec ID/Info                            : UTF-8 Plain Text
Language                                 : Spanish
Default                                  : Yes
Forced                                   : Yes

Text #2
ID                                       : 5
Format                                   : UTF-8
Codec ID                                 : S_TEXT/UTF8
Codec ID/Info                            : UTF-8 Plain Text
Title                                    : CadagotoHD - Subtitulos Español Latino
Language                                 : Spanish
Default                                  : No
Forced                                   : No

Menu
00:00:00.000                             : en:00:00:00.000
00:05:28.036                             : en:00:05:28.036
00:07:50.428                             : en:00:07:50.428
00:14:21.569                             : en:00:14:21.569
00:19:40.387                             : en:00:19:40.387
00:25:58.932                             : en:00:25:58.932
00:28:59.780                             : en:00:28:59.780
00:32:37.372                             : en:00:32:37.372
00:35:04.769                             : en:00:35:04.769
00:36:19.344                             : en:00:36:19.344
00:41:52.009                             : en:00:41:52.009
00:44:34.922                             : en:00:44:34.922
00:48:04.840                             : en:00:48:04.840
00:50:37.576                             : en:00:50:37.576
00:58:27.754                             : en:00:58:27.754
01:02:17.776                             : en:01:02:17.776
01:06:08.798                             : en:01:06:08.798
01:11:12.852                             : en:01:11:12.852
01:14:02.646                             : en:01:14:02.646
01:15:46.917                             : en:01:15:46.917
01:18:54.438                             : en:01:18:54.438
01:21:27.299                             : en:01:21:27.299
01:24:11.630                             : en:01:24:11.630
01:26:07.078                             : en:01:26:07.078
01:27:57.731                             : en:01:27:57.731
01:29:37.497                             : en:01:29:37.497
01:31:39.911                             : en:01:31:39.911
01:37:15.788                             : en:01:37:15.788
01:42:32.938                             : en:01:42:32.938
01:48:12.819                             : en:01:48:12.819
01:54:18.810                             : en:01:54:18.810
01:57:37.634                             : en:01:57:37.634




w9pqW6.png

GLdRAF.png

9wZulq.png

0ywULh.png

Y6P6B5.png






Descargar Enlaces De FreakShare AQUI
http://s2l.biz/16ffhum193b






Utiliza los Archivos .REV si tienes problema con 1,2,3 archivos en su descarga , Esté off o corruptos
353af4414c4a58c68848412c4e1e0.gif
Si necesitas 2 archivos , Bajas 2 REV y los reconstruirán Cualquiera que fuesen los que te falten !

 

Link to comment
Share on other sites

Create an account or sign in to comment

You need to be a member in order to leave a comment

Create an account

Sign up for a new account in our community. It's easy!

Register a new account

Sign in

Already have an account? Sign in here.

Sign In Now
 Share

×
×
  • Create New...