Ir a contenido



Foto

911: Llamada Mortal BDRip 720p Ingles AC3 5.1 Sub Esp [2013]



  • Please log in to reply
No hay respuestas en este tema

#1 cadagoto

cadagoto

    Super - Warian@

  • Warianos
  • 4.706 mensajes
  • Sexo :

Escrito 14 de junio de 2013 - 03:53


911: Llamada Mortal (The Call) BDRip 720p Ingles AC3 5.1 & DTS Sub Esp [2013][Thriller]

4lo8c7.jpg

Ficha Técnica
The Call
911: Llamada Mortal
Año: 2013
Duración: 95 min.
País: Estados Unidos
Director: Brad Anderson
Guión: Richard D'Ovidio
Música: John Debney
Fotografía: Tom Yatsko
Reparto: Halle Berry, Abigail Breslin, Morris Chestnut, Michael Imperioli, Ella Rae Peck, Roma Maffia, Justina Machado, José Zúñiga,
Productora: Graup Entertainment / Troika Pictures
Género: Thriller

Sinopsis
Un operador de línea del 911 deberá enfrentarse a sus propios temores para salvar la vida de una joven de un asesino

Datos Técnicos

General
Format                                   : Matroska
Format version                           : Version 2
File size                                : 4.79 GiB
Duration                                 : 1h 34mn
Overall bit rate                         : 7 276 Kbps
Movie name                               : CadagotoHD.Com  ¡Visítanos!
Encoded date                             : UTC 2013-06-14 04:23:42
Writing application                      : mkvmerge v3.4.0 ('Rapunzel') built on May 15 2010 09:38:20
Writing library                          : libebml v0.8.0 + libmatroska v0.9.0

Video
ID                                       : 1
Format                                   : AVC
Format/Info                              : Advanced Video Codec
Format profile                           : High@L4.1
Format settings, CABAC                   : Yes
Format settings, ReFrames                : 5 frames
Codec ID                                 : V_MPEG4/ISO/AVC
Duration                                 : 1h 34mn
Bit rate                                 : 5 127 Kbps
Width                                    : 1 280 pixels
Height                                   : 696 pixels
Display aspect ratio                     : 1.85:1
Frame rate mode                          : Constant
Frame rate                               : 23.976 fps
Color space                              : YUV
Chroma subsampling                       : 4:2:0
Bit depth                                : 8 bits
Scan type                                : Progressive
Bits/(Pixel*Frame)                       : 0.240
Stream size                              : 3.28 GiB (68%)
Title                                    : CadagotoHD.Com  ¡Visítanos!
Writing library                          : x264 core 133 r2334 a3ac64b
Encoding settings                        : cabac=1 / ref=5 / deblock=1:0:0 / analyse=0x3:0x133 / me=umh / subme=7 / psy=1 / psy_rd=1.00:0.00 / mixed_ref=1 / me_range=16 / chroma_me=1 / trellis=1 / 8x8dct=1 / cqm=0 / deadzone=21,11 / fast_pskip=0 / chroma_qp_offset=-2 / threads=12 / lookahead_threads=2 / sliced_threads=0 / nr=0 / decimate=1 / interlaced=0 / bluray_compat=0 / constrained_intra=0 / bframes=3 / b_pyramid=2 / b_adapt=1 / b_bias=0 / direct=1 / weightb=1 / open_gop=0 / weightp=2 / keyint=250 / keyint_min=23 / scenecut=40 / intra_refresh=0 / rc_lookahead=40 / rc=2pass / mbtree=1 / bitrate=5127 / ratetol=1.0 / qcomp=0.60 / qpmin=0 / qpmax=69 / qpstep=4 / cplxblur=20.0 / qblur=0.5 / ip_ratio=1.40 / aq=1:1.00
Language                                 : English
Default                                  : No
Forced                                   : No

Audio #1
ID                                       : 2
Format                                   : AC-3
Format/Info                              : Audio Coding 3
Mode extension                           : CM (complete main)
Format settings, Endianness              : Big
Codec ID                                 : A_AC3
Duration                                 : 1h 34mn
Bit rate mode                            : Constant
Bit rate                                 : 640 Kbps
Channel(s)                               : 6 channels
Channel positions                        : Front: L C R, Side: L R, LFE
Sampling rate                            : 48.0 KHz
Bit depth                                : 16 bits
Compression mode                         : Lossy
Stream size                              : 431 MiB (9%)
Title                                    : CadagotoHD.Com  -  Audio Ingles AC3 5.1 640 Kbps
Language                                 : English
Default                                  : No
Forced                                   : No

Audio #2
ID                                       : 3
Format                                   : DTS
Format/Info                              : Digital Theater Systems
Mode                                     : 16
Format settings, Endianness              : Big
Codec ID                                 : A_DTS
Duration                                 : 1h 34mn
Bit rate mode                            : Constant
Bit rate                                 : 1 509 Kbps
Channel(s)                               : 6 channels
Channel positions                        : Front: L C R, Side: L R, LFE
Sampling rate                            : 48.0 KHz
Bit depth                                : 24 bits
Compression mode                         : Lossy
Delay relative to video                  : 11ms
Stream size                              : 1 017 MiB (21%)
Title                                    : CadagotoHD.Com  -  Audio Ingles DTS 1509 Kbps
Language                                 : English
Default                                  : No
Forced                                   : No

Text
ID                                       : 4
Format                                   : UTF-8
Codec ID                                 : S_TEXT/UTF8
Codec ID/Info                            : UTF-8 Plain Text
Title                                    : CadagotoHD.Com - Subtitulos Español Latino
Language                                 : Spanish
Default                                  : Yes
Forced                                   : Yes

Menu
00:00:00.000                             : en:00:00:00.000
00:06:26.678                             : en:00:06:26.678
00:12:30.500                             : en:00:12:30.500
00:17:15.034                             : en:00:17:15.034
00:24:12.409                             : en:00:24:12.409
00:30:43.759                             : en:00:30:43.759
00:36:00.075                             : en:00:36:00.075
00:42:41.726                             : en:00:42:41.726
00:46:51.892                             : en:00:46:51.892
00:49:57.912                             : en:00:49:57.912
00:54:50.913                             : en:00:54:50.913
01:01:31.563                             : en:01:01:31.563
01:06:08.173                             : en:01:06:08.173
01:12:30.638                             : en:01:12:30.638
01:20:04.216                             : en:01:20:04.216
01:26:01.782                             : en:01:26:01.782

e89v0i.jpg

a26t5y.jpg

43iup.jpg

dyvbsn.jpg

rae1qt.jpg




Descargar Enlaces AQUI
http://s2l.biz/tqthdomlkw842





Utiliza los Archivos .REV si tienes problema con 1,2,3 archivos en su descarga , Esté off o corruptos
353af4414c4a58c68848412c4e1e0.gif
Si necesitas 2 archivos , Bajas 2 REV y los reconstruirán Cualquiera que fuesen los que te falten !


  • 0


Venta De Dolares Paypal
El Valor De Cada Dolar Es el Valor Del Dia
Solo Reales Interesados enviar Correo a Cadagoto@gmail.com




Compra Tu Premiun Desde AQUI Y Descarga A Maxima Velocidad

[center]http://ul.to/ref/2144263
1cfa199e35c7b638be97676d120a8.jpg

.




0 usuario(s) viendo este foro

0 miembros, 0 invitados, 0 usuarios anónimos

Ocultar Publicidad