Jump to content

Lluvia en el Campo de Batalla [2003]-[SATRip]-[Castellano]


Barrufete
 Share

Recommended Posts

batalla_de_hoth_32.png

Sinopsis.png
"Esta simple palabra, lluvia, que no significa nada para el civil con un techo sobre su cabeza, esta simple palabra encierra todo el horror para los hombres en el campo de batalla"

Así escribía un desdichado soldado en la Primera Guerra Mundial. Sus sentimientos habrían sido compartidos no sólo por las generaciones de hombres corrientes que lucharon en guerras, sino también por los comandantes, cuyos planes de batalla se perdían en el caos cuando los cielos se abrían. En este documental, exploraremos los efectos que la lluvia tuvo sobre algunas de las batallas y campañas más cruciales de la historia, entre ellas, la batalla de Agincourt en 1415 o la batalla de Waterloo en 1815. Asimismo, conoceremos cómo la lluvia afectó a las grandes campañas de la Segunda Guerra Mundial, incluido el desembarco del Día D, la lucha por Italia y la campaña en Birmania.

RIPEADO.png

Format : AVI

Format/Info : Audio Video Interleave

File size : 440 MiB

Duration : 48mn 1s

Overall bit rate : 1 280 Kbps

Movie name : DVD_VR

Writing application : MEncoder dev-CVS-20060519-3.4.2

Writing library : MPlayer

 

Video

ID : 0

Format : MPEG-4 Visual

Format profile : [email protected]

Format settings, BVOP : No

Format settings, QPel : No

Format settings, GMC : No warppoints

Format settings, Matrix : Default (H.263)

Codec ID : DIVX

Codec ID/Info : Project Mayo

Codec ID/Hint : DivX 4

Duration : 48mn 1s

Bit rate : 1 139 Kbps

Width : 480 pixels

Height : 360 pixels

Display aspect ratio : 4:3

Frame rate : 25.000 fps

Color space : YUV

Chroma subsampling : 4:2:0

Bit depth : 8 bits

Scan type : Progressive

Compression mode : Lossy

Bits/(Pixel*Frame) : 0.264

Stream size : 391 MiB (89%)

Writing library : Lavc51.9.0

 

Audio

ID : 1

Format : MPEG Audio

Format version : Version 1

Format profile : Layer 3

Mode : Joint stereo

Codec ID : 55

Codec ID/Hint : MP3

Duration : 48mn 1s

Bit rate mode : Constant

Bit rate : 128 Kbps

Channel(s) : 2 channels

Sampling rate : 48.0 KHz

Compression mode : Lossy

Stream size : 44.0 MiB (10%)

Alignment : Aligned on interleaves

Interleave, duration : 24 ms (0.60 video frame)

Interleave, preload duration : 336 ms

flag_spain.png
EN ESPAÑOL | DE ESPAÑA



CAPTURAS.png
LLUVl_A_N_L_CMP0_D_B4_T4_LLA_s.jpg

DOWNLOAD.png
uploaded.png
LLUVIA EN EL || CAMPO DE BATALLA



CULTURA.png
‘’Yo soy de la época en la que un disco pirata era un disco no oficial de Led Zepelin, o de los Rolling Stones, eran estos vinilos blancos, con una fotocopia...
Para mi el disco pirata fue siempre algo difícil de conseguir, un articulo de colección, una especie de joya única’’ -Andrés Calamaro.

Link to comment
Share on other sites

  • 3 months later...
  • 10 months later...

Create an account or sign in to comment

You need to be a member in order to leave a comment

Create an account

Sign up for a new account in our community. It's easy!

Register a new account

Sign in

Already have an account? Sign in here.

Sign In Now
 Share

×
×
  • Create New...