Jump to content

Batman & Robin [BDRip m720p][Dual AC3][Fantástico][1997]


Recommended Posts

batman16.jpg

 

TÍTULO ORIGINAL Batman & Robin

AÑO 1997

DURACIÓN 125 min.

PAÍS [Estados Unidos]

DIRECTOR Joel Schumacher

GUIÓN Akiva Goldsman (Cómic: Bob Kane)

MÚSICA Elliot Goldenthal

FOTOGRAFÍA Stephen Goldblatt

REPARTO George Clooney, Arnold Schwarzenegger, Uma Thurman, Chris O'Donnell, Alicia Silverstone, Michael Gough, Pat Hingle, Elle MacPherson, Vivica A. Fox

PRODUCTORA Warner Bros. Pictures

PREMIOS 1997: Premio Razzie a la peor actriz sec. 11 nominaciones, incluyendo peor película y director

GÉNERO Fantástico. Acción | Superhéroes. Cómic. DC Comics. Secuela

 

Los experimentos del doctor Victor Fries para conservar la vida de su esposa con técnicas criogénicas originaron un error fatal que lo convirtió en Míster Frío, un villano que necesita mantener su cuerpo a temperaturas glaciales y que intentará congelar a todos los habitantes de la ciudad de Gotham. Además, la tímida botánica Pamela Isley se transforma en el transcurso de un experimento en la terrible Hiedra Venenosa que querrá asesinar a todos los seres humanos para que las plantas recuperen su hegemonía sobre la Tierra. Batman y su compañero Robin deberán enfrentarse a ellos para hacer fracasar sus siniestros planes.

 



[list=1]
[*]Format : Matroska
[*]Format version : Version 2
[*]File size : 2.15 GiB
[*]Duration : 2h 4mn
[*]Overall bit rate : 2 459 Kbps
[*]Movie name : Batman Robin 1997 BDRip m720p lajara
[*]Encoded date : UTC 2010-09-15 07:07:53
[*]Writing application : mkvmerge v2.8.0 ('The Tree') built on May 9 2009 18:02:06
[*]Writing library : libebml v0.7.7 + libmatroska v0.8.1
[*]Video
[*]ID : 1
[*]Format : AVC
[*]Format/Info : Advanced Video Codec
[*]Format profile : [email protected]
[*]Format settings, CABAC : Yes
[*]Format settings, ReFrames : 2 frames
[*]Codec ID : V_MPEG4/ISO/AVC
[*]Duration : 2h 4mn
[*]Bit rate : 1 817 Kbps
[*]Width : 1 280 pixels
[*]Height : 720 pixels
[*]Display aspect ratio : 16:9
[*]Frame rate : 23.976 fps
[*]Color space : YUV
[*]Chroma subsampling : 4:2:0
[*]Bit depth : 8 bits
[*]Scan type : Progressive
[*]Bits/(Pixel*Frame) : 0.082
[*]Stream size : 1.54 GiB (72%)
[*]Title : Batman Robin 1997 BDRip m720p lajara
[*]Writing library : x264 core 79
[*]Encoding settings : cabac=1 / ref=2 / deblock=1:0:0 / analyse=0x1:0x111 / me=hex / subme=6 / psy=1 / psy_rd=1.0:0.0 / mixed_ref=0 / me_range=16 / chroma_me=1 / trellis=0 / 8x8dct=0 / cqm=0 / deadzone=21,11 / chroma_qp_offset=-2 / threads=3 / nr=0 / decimate=1 / mbaff=0 / constrained_intra=0 / bframes=2 / b_pyramid=0 / b_adapt=1 / b_bias=0 / direct=1 / wpredb=0 / wpredp=2 / keyint=240 / keyint_min=24 / scenecut=40 / rc_lookahead=40 / rc=2pass / mbtree=1 / bitrate=1817 / ratetol=1.0 / qcomp=0.60 / qpmin=10 / qpmax=51 / qpstep=4 / cplxblur=20.0 / qblur=0.5 / ip_ratio=1.40 / aq=1:1.00
[*]Language : English
[*]Default : Yes
[*]Forced : No
[*]Color primaries : BT.709-5, BT.1361, IEC 61966-2-4, SMPTE RP177
[*]Transfer characteristics : BT.709-5, BT.1361
[*]Matrix coefficients : BT.709-5, BT.1361, IEC 61966-2-4 709, SMPTE RP177
[*]Audio #1
[*]ID : 2
[*]Format : AC-3
[*]Format/Info : Audio Coding 3
[*]Mode extension : CM (complete main)
[*]Format settings, Endianness : Big
[*]Codec ID : A_AC3
[*]Duration : 2h 4mn
[*]Bit rate mode : Constant
[*]Bit rate : 320 Kbps
[*]Channel(s) : 6 channels
[*]Channel positions : Front: L C R, Side: L R, LFE
[*]Sampling rate : 48.0 KHz
[*]Bit depth : 16 bits
[*]Compression mode : Lossy
[*]Stream size : 286 MiB (13%)
[*]Language : Spanish
[*]Default : Yes
[*]Forced : No
[*]Audio #2
[*]ID : 3
[*]Format : AC-3
[*]Format/Info : Audio Coding 3
[*]Mode extension : CM (complete main)
[*]Format settings, Endianness : Big
[*]Codec ID : A_AC3
[*]Duration : 2h 4mn
[*]Bit rate mode : Constant
[*]Bit rate : 320 Kbps
[*]Channel(s) : 6 channels
[*]Channel positions : Front: L C R, Side: L R, LFE
[*]Sampling rate : 48.0 KHz
[*]Bit depth : 16 bits
[*]Compression mode : Lossy
[*]Stream size : 286 MiB (13%)
[*]Language : English
[*]Default : No
[*]Forced : No
[*]Text
[*]ID : 4
[*]Format : UTF-8
[*]Codec ID : S_TEXT/UTF8
[*]Codec ID/Info : UTF-8 Plain Text
[*]Language : Spanish
[*]Default : No
[*]Forced : No
[/list]

batmanrobi.jpg

 

 

1332761186_237.gif

 

78198movingfilmstriphor.gif78198movingfilmstriphor.gif

 

DESCARGA SHARPFILE

http://sharpfile.com/uxppe5xgsp5v/Batrobi-Desfalko.part1.rar.html

http://sharpfile.com/14j343paujjk/Batrobi-Desfalko.part2.rar.html

http://sharpfile.com/5r3v0g1i7w22/Batrobi-Desfalko.part3.rar.html

=======================================================

DESCARGA RAPIDGATOR

http://rapidgator.net/file/29601404/Batrobi-Desfalko.part1.rar.html

http://rapidgator.net/file/29601405/Batrobi-Desfalko.part2.rar.html

http://rapidgator.net/file/29601389/Batrobi-Desfalko.part3.rar.html

=======================================================

 

78198movingfilmstriphor.gif78198movingfilmstriphor.gif

Link to comment
Share on other sites

Create an account or sign in to comment

You need to be a member in order to leave a comment

Create an account

Sign up for a new account in our community. It's easy!

Register a new account

Sign in

Already have an account? Sign in here.

Sign In Now
 Share

×
×
  • Create New...