Jump to content

ENTERRADOS (BURIED)


Recommended Posts


IPB Image


info

TÍTULO ORIGINAL Buried
AÑO 2010
DURACIÓN 93 min.
PAÍS España
DIRECTOR Rodrigo Cortés
GUIÓN Chris Sparling
MÚSICA Victor Reyes
FOTOGRAFÍA Eduard Grau
REPARTO Ryan Reynolds
PRODUCTORA Versus Entertainment
WEB OFICIAL http://experienceburied.com
GÉNERO Intriga. Thriller

Format : AVI
Format/Info : Audio Video Interleave
File size : 700 MiB
Duration : 1h 35mn
Overall bit rate : 1 025 Kbps
Writing application : Nandub v1.0rc2
Writing library : Nandub build 1852/release

Video
ID : 0
Format : MPEG-4 Visual
Format profile : Advanced [email protected]
Format settings, BVOP : Yes
Format settings, QPel : No
Format settings, GMC : No warppoints
Format settings, Matrix : Default (H.263)
Muxing mode : Packed bitstream
Codec ID : XVID
Codec ID/Hint : XviD
Duration : 1h 35mn
Bit rate : 632 Kbps
Width : 640 pixels
Height : 272 pixels
Display aspect ratio : 2.35:1
Frame rate : 23.976 fps
Resolution : 8 bits
Colorimetry : 4:2:0
Scan type : Progressive
Bits/(Pixel*Frame) : 0.151
Stream size : 431 MiB (62%)
Writing library : XviD 1.2.1 (UTC 2008-12-04)

Audio
ID : 1
Format : AC-3
Format/Info : Audio Coding 3
Codec ID : 2000
Duration : 1h 35mn
Bit rate mode : Constant
Bit rate : 384 Kbps
Channel(s) : 6 channels
Channel positions : Front: L C R, Side: L R, LFE
Sampling rate : 48.0 KHz
Stream size : 262 MiB (37%)
Alignment : Split accross interleaves
Interleave, duration : 42 ms (1.00 video frame)
Interleave, preload duration : 500 ms
AUDIO : INGLES
SUBTITLE : ESPAÑOL LATINO APARTE


trailer

DVMUwoNZs2Y


IPB Image

Paul Conroy (Ryan Reynolds), padre de familia y contratista civil en Irak, es secuestrado y despierta enterrado vivo en un viejo ataúd de madera, teniendo en su poder únicamente un teléfono móvil y un mechero. El teléfono es el único medio para tratar de escapar de su agónica pesadilla. La cobertura precaria y la escasa batería son sus mortales enemigos en una carrera a vida o muerte contra el tiempo: sólo dispone de 90 minutos para lograr su rescate antes de que se le agote el oxígeno…

IPB Image


IPB Image



IPB Image


[hide]
http://www.megaupload.com/?d=1N7G337Q
http://www.megaupload.com/?d=MXI7K1BZ
http://www.megaupload.com/?d=HZ7TSOF7
http://www.megaupload.com/?d=300XGUGB
http://www.megaupload.com/?d=044BQH1Z
http://www.megaupload.com/?d=OB9JID8V
http://www.megaupload.com/?d=XSC0KE20
http://www.megaupload.com/?d=51YBGC8J
[/hide]

para grabar utiliza NERO PORTABLE


Link to comment
Share on other sites

Create an account or sign in to comment

You need to be a member in order to leave a comment

Create an account

Sign up for a new account in our community. It's easy!

Register a new account

Sign in

Already have an account? Sign in here.

Sign In Now
 Share

×
×
  • Create New...